<?xml version="1.0" standalone="no"?>
<!DOCTYPE svg PUBLIC "-//W3C//DTD SVG 1.1//EN" "http://www.w3.org/Graphics/SVG/1.1/DTD/svg11.dtd" >
<svg xmlns="http://www.w3.org/2000/svg">
<metadata>
<json>
<![CDATA[
{
	"fontFamily": "WebComponentsIcons",
	"majorVersion": 1,
	"minorVersion": 7,
	"fontURL": "http://www.telerik.com",
	"description": "Web Components Icon Font\nFont generated by IcoMoon.",
	"copyright": "Telerik, A Progress Company",
	"designer": "Telerik, A Progress Company",
	"designerURL": "http://www.telerik.com",
	"license": "Apache License, Version 2.0",
	"licenseURL": "http://www.apache.org/licenses/LICENSE-2.0.html",
	"version": "Version 1.7",
	"fontId": "WebComponentsIcons",
	"psName": "WebComponentsIcons",
	"subFamily": "Regular",
	"fullName": "WebComponentsIcons"
}
]]>
</json>
</metadata>
<defs>
<font id="WebComponentsIcons" horiz-adv-x="1024">
<font-face units-per-em="1024" ascent="960" descent="-64" />
<missing-glyph horiz-adv-x="1024" />
<glyph unicode="&#x20;" horiz-adv-x="512" d="" />
<glyph unicode="&#xe000;" glyph-name="arrow-45-up-right" data-tags="arrow, 45, up, right" d="M704 640v-384l-384 384h384z" />
<glyph unicode="&#xe001;" glyph-name="arrow-45-down-right" data-tags="arrow, 45, down, right" d="M704 256h-384l384 384v-384z" />
<glyph unicode="&#xe002;" glyph-name="arrow-45-down-left" data-tags="arrow, 45, down, left" d="M320 256v384l384-384h-384z" />
<glyph unicode="&#xe003;" glyph-name="arrow-45-up-left" data-tags="arrow, 45, up, left" d="M320 640h384l-384-384v384z" />
<glyph unicode="&#xe004;" glyph-name="arrow-60-up" data-tags="arrow, 60, up" d="M512 640l256-384h-512l256 384z" />
<glyph unicode="&#xe005;" glyph-name="arrow-60-right" data-tags="arrow, 60, right" d="M704 448l-384-256v512l384-256z" />
<glyph unicode="&#xe006;" glyph-name="arrow-60-down" data-tags="arrow, 60, down" d="M512 256l-256 384h512l-256-384z" />
<glyph unicode="&#xe007;" glyph-name="arrow-60-left" data-tags="arrow, 60, left" d="M320 448l384 256v-512l-384 256z" />
<glyph unicode="&#xe008;" glyph-name="arrow-end-up" data-tags="arrow, end, up" d="M256 256l256 384 256-384h-512zM768 704h-512v-64h512v64z" />
<glyph unicode="&#xe009;" glyph-name="arrow-end-right" data-tags="arrow, end, right" d="M256 704l384-256-384-256v512zM704 192v512h-64v-512h64z" />
<glyph unicode="&#xe00a;" glyph-name="arrow-end-down" data-tags="arrow, end, down" d="M768 704l-256-384-256 384h512zM256 256h512v64h-512v-64z" />
<glyph unicode="&#xe00b;" glyph-name="arrow-end-left" data-tags="arrow, end, left" d="M704 192l-384 256 384 256v-512zM256 704v-512h64v512h-64z" />
<glyph unicode="&#xe00c;" glyph-name="arrow-double-60-up" data-tags="arrow, double, 60, up" d="M256 64l256 384 256-384h-512zM512 832l-256-384h512l-256 384z" />
<glyph unicode="&#xe00d;" glyph-name="arrow-double-60-right" data-tags="arrow, double, 60, right" d="M128 704l384-256-384-256v512zM896 448l-384 256v-512l384 256z" />
<glyph unicode="&#xe00e;" glyph-name="arrow-double-60-down" data-tags="arrow, double, 60, down" d="M768 832l-255.998-384-256.002 384h512zM512.002 64l255.998 384-512-0.002 256.002-383.998z" />
<glyph unicode="&#xe00f;" glyph-name="arrow-double-60-left" data-tags="arrow, double, 60, left" d="M896 192l-384 255.998 384 256v-511.998zM128 447.998l384-255.998v512l-384-256.002z" />
<glyph unicode="&#xe010;" glyph-name="arrows-kpi" data-tags="arrows, kpi" d="M256 384h512l-256-384-256 384zM512 896l-256-384h512.002l-256.002 384z" />
<glyph unicode="&#xe011;" glyph-name="arrows-no-change" data-tags="arrows, no, change" d="M512 640l-256-384-256 384h512zM704 640l-256-384h512.002l-256.002 384z" />
<glyph unicode="&#xe012;" glyph-name="arrow-overflow-down" data-tags="arrow, overflow, down" d="M768 640l-256-384-256 384h512zM256 768v-64h512v64h-512z" />
<glyph unicode="&#xe013;" glyph-name="arrow-chevron-up" data-tags="arrow, chevron, up" d="M259.882 252.118l252.12 252.12 252.122-252.12 67.876 67.882-319.998 320-320.002-320 67.882-67.882z" />
<glyph unicode="&#xe014;" glyph-name="arrow-chevron-right" data-tags="arrow, chevron, right" d="M316.118 700.118l252.12-252.12-252.12-252.122 67.882-67.876 320 319.998-320 320.002-67.882-67.882z" />
<glyph unicode="&#xe015;" glyph-name="arrow-chevron-down" data-tags="arrow, chevron, down" d="M764.118 643.882l-252.12-252.12-252.122 252.12-67.876-67.882 319.998-320 320.002 320-67.882 67.882z" />
<glyph unicode="&#xe016;" glyph-name="arrow-chevron-left" data-tags="arrow, chevron, left" d="M707.882 195.882l-252.12 252.12 252.12 252.122-67.882 67.876-320-319.998 320-320.002 67.882 67.882z" />
<glyph unicode="&#xe017;" glyph-name="arrow-up" data-tags="arrow, up" d="M768 384h-192v-256h-128l-0.002 256h-191.998l255.998 384 256.002-384z" />
<glyph unicode="&#xe018;" glyph-name="arrow-right" data-tags="arrow, right" d="M448 192v192h-256v128h256v192l384-256-384-256z" />
<glyph unicode="&#xe019;" glyph-name="arrow-down" data-tags="arrow, down" d="M256 512h192v256h128l0.002-256h191.998l-255.998-384-256.002 384z" />
<glyph unicode="&#xe01a;" glyph-name="arrow-left" data-tags="arrow, left" d="M576 704v-192h256v-128l-256-0.002v-191.998l-384 255.998 384 256.002z" />
<glyph unicode="&#xe01b;" glyph-name="arrow-drill" data-tags="arrow, drill" d="M576 576v-128h128l-160-256-160 256h128v128h-256v64h576v-64h-256z" />
<glyph unicode="&#xe01c;" glyph-name="arrow-parent" data-tags="arrow, parent" d="M256 384l160 256 160-256h-128v-128h384v-64h-448v192h-128z" />
<glyph unicode="&#xe01d;" glyph-name="arrow-root" data-tags="arrow, root" d="M256 384l160 256 160-256h-128v-128h384v-64h-448v192h-128zM832 704h-640v-64h640v64z" />
<glyph unicode="&#xe01e;" glyph-name="arrows-resizing" data-tags="arrows, resizing" d="M256 449.406h128v-65.406h-128v-128l-256 160 256 160v-126.594zM448 0h128v896h-128v-896zM1024 416l-256 160v-128h-128v-65.406h128v-126.594l256 160z" />
<glyph unicode="&#xe01f;" glyph-name="arrows-dimensions" data-tags="arrows, dimensions" d="M704 0v128h-448v-128h-64v128h-128v64h128v448h-128l160 256 160-256h-128v-448h448v128l256-160-256-160z" />
<glyph unicode="&#xe020;" glyph-name="arrows-swap" data-tags="arrows, swap" d="M512 640h-128v-448h-64v448h-128l160 256 160-256zM704 256v448h-64v-448h-128l160-256 160 256h-128z" />
<glyph unicode="&#xe021;" glyph-name="drag-and-drop" data-tags="drag, and, drop" d="M64 704l384-224-384-224v448zM512 512v-64h448v64h-448z" />
<glyph unicode="&#xe022;" glyph-name="categorize" data-tags="categorize" d="M64 896v-384l320 192M64 0v384l320-192M960 832v-64h-576v64M960 640v-64h-576v64M960 320v-64h-576v64M960 128v-64h-576v64" />
<glyph unicode="&#xe023;" glyph-name="grid" data-tags="grid" d="M64 896h256v-256h-256v256zM384 0h256v256h-256v-256zM64 0h256v256h-256v-256zM64 320h256v256h-256v-256zM384 320h256v256h-256v-256zM704 896v-256h256v256h-256zM704 320h256v256h-256v-256zM384 640h256v256h-256v-256zM704 0h256v256h-256v-256z" />
<glyph unicode="&#xe024;" glyph-name="grid-layout" data-tags="grid, layout" d="M64 896h192v-192h-192v192zM320 896v-192h640v192h-640zM64 384h192v192h-192v-192zM320 384h640v192h-640v-192zM64 64h192v192h-192v-192zM320 64h640v192h-640v-192z" />
<glyph unicode="&#xe025;" glyph-name="group" data-tags="group" d="M64 448h384v-384h-384v384zM64 512h384v384h-384v-384zM512 64h384v384h-384v-384zM512 896v-384h384v384h-384z" />
<glyph unicode="&#xe026;" glyph-name="ungroup" data-tags="ungroup" d="M64 448h384v-384h-384v384zM128 576h256v256h-256v-256zM576 128h256v256h-256v-256zM512 896v-384h384v384h-384z" />
<glyph unicode="&#xe027;" glyph-name="handler-drag" data-tags="handler, drag" d="M320 832h128v-768h-128v768zM512 832v-768h128v768h-128z" />
<glyph unicode="&#xe028;" glyph-name="layout" data-tags="layout" d="M384 128h512v-128h-512v128zM384 192h512v128h-512v-128zM64 0h256v704h-256v-704zM384 576h512v128h-512v-128zM384 384h512v128h-512v-128zM64 960v-192h832v192h-832z" />
<glyph unicode="&#xe029;" glyph-name="layout-1-by-4" data-tags="layout, 1, by, 4" d="M64 960h384v-960h-384v960zM512 960v-192h384v192h-384zM512 512h384v192h-384v-192zM512 256h384v192h-384v-192zM512 0h384v192h-384v-192z" />
<glyph unicode="&#xe02a;" glyph-name="layout-2-by-2" data-tags="layout, 2, by, 2" d="M64 512h384v448h-384v-448zM512 512h384v448h-384v-448zM64 0h384v448h-384v-448zM512 0h384v448h-384v-448z" />
<glyph unicode="&#xe02b;" glyph-name="layout-side-by-side" data-tags="layout, side, by, side" d="M64 192h832v-192h-832v192zM64 256h832v192h-832v-192zM64 512h832v192h-832v-192zM64 960v-192h832v192h-832z" />
<glyph unicode="&#xe02c;" glyph-name="layout-stacked" data-tags="layout, stacked" d="M64 448h384v-192h-384v192zM64 0h384v192h-384v-192zM512 256h384v192h-384v-192zM64 960v-448h832v448h-832zM512 0h384v192h-384v-192z" />
<glyph unicode="&#xe02d;" glyph-name="columns" data-tags="columns" d="M128 896h192v-896h-192v896zM384 0h192v896h-192v-896zM640 896v-896h192v896h-192z" />
<glyph unicode="&#xe02e;" glyph-name="rows" data-tags="rows" d="M960 832v-192h-896v192h896zM64 576v-192h896v192h-896zM960 320h-896v-192h896v192z" />
<glyph unicode="&#xe02f;" glyph-name="reorder" data-tags="reorder" d="M960 704v-128h-896v128h896zM64 512v-128h896v128h-896zM960 320h-896v-128h896v128z" />
<glyph unicode="&#xe030;" glyph-name="menu" data-tags="menu" d="M960 896v-192h-896v192h896zM64 576v-192h896v192h-896zM960 256h-896v-192h896v192z" />
<glyph unicode="&#xe031;" glyph-name="more-vertical" data-tags="more, vertical" d="M480 704c52.8 0 96 43.2 96 96s-43.2 96-96 96c-52.8 0-96-43.2-96-96s43.2-96 96-96zM480 576c-52.8 0-96-43.2-96-96s43.2-96 96-96c52.8 0 96 43.2 96 96s-43.2 96-96 96zM480 256c-52.8 0-96-43.2-96-96s43.2-96 96-96c52.8 0 96 43.2 96 96s-43.2 96-96 96z" />
<glyph unicode="&#xe032;" glyph-name="more-horizontal" data-tags="more, horizontal" d="M256 480c0 52.8-43.2 96-96 96s-96-43.2-96-96c0-52.8 43.2-96 96-96s96 43.2 96 96zM384 480c0-52.8 43.2-96 96-96s96 43.2 96 96c0 52.8-43.2 96-96 96s-96-43.2-96-96zM704 480c0-52.8 43.2-96 96-96s96 43.2 96 96c0 52.8-43.2 96-96 96s-96-43.2-96-96z" />
<glyph unicode="&#xe033;" glyph-name="overlap" data-tags="overlap" d="M640 320v512h-512v-512zM384 64h512v512h-192v-320h-320z" />
<glyph unicode="&#xe034;" glyph-name="home" data-tags="home, root" d="M960 448c0-35.4-28.6-64-64-64-18.2 0-34.8 7.6-46.4 20v0l-17.6 17.4v-293.4c0-35.4-28.6-64-64-64h-128c-35.4 0-64 28.6-64 64v192h-128v-192c0-35.4-28.6-64-64-64h-128c-35.4 0-64 28.6-64 64v294.8l-16.6-17.8c-11.8-13-28.6-21-47.4-21-35.4 0-64 28.6-64 64 0 17 6.6 32.2 17.2 43.8v0l0.4 0.4c0.6 0.6 1.4 1.4 2 2l382 382.6c0.6 0.6 1.2 1.2 2 2v0 0c11.6 11 27.2 17.8 44.4 17.8 18.2 0 34.6-7.6 46.2-19.8l382.4-382.8c0.4-0.4 1-1 1.4-1.4l0.6-0.6c10.8-11.6 17.4-27 17.4-44z" />
<glyph unicode="&#xe035;" glyph-name="height" data-tags="height" d="M480-64l160 256h-128v512h128l-160 256-160-256h128v-512h-128z" />
<glyph unicode="&#xe036;" glyph-name="width" data-tags="width" d="M1024 480l-256 160v-128h-512v128l-256-160 256-160v128h512v-128z" />
<glyph unicode="&#xe037;" glyph-name="max-height" data-tags="max-height" d="M768 960h-576v-64h576zM768 2h-286.8l158.8 254h-128v384h128l-160 256-160-256h128v-384h-128l158.8-254h-286.8v-64h576z" />
<glyph unicode="&#xe038;" glyph-name="max-width" data-tags="max-width" d="M0 768v-576h64v576zM958 768v-286.8l-254 158.8v-128h-384v128l-256-160 256-160v128h384v-128l254 158.8v-286.8h64v576z" />
<glyph unicode="&#xe039;" glyph-name="min-height" data-tags="min-height" d="M480 576h-288v-64h576v64zM768 384h-576v-64h576zM320 64h320l-160 256zM448 64h64v-128h-64v128zM512 832v128h-64v-128h-128l160-256 160 256z" />
<glyph unicode="&#xe03a;" glyph-name="min-width" data-tags="min-width" d="M384 480v-288h64v576h-64zM576 768v-576h64v576zM896 320v320l-256-160zM896 512h128v-64h-128v64zM128 512h-128v-64h128v-128l256 160-256 160z" />
<glyph unicode="&#xe03b;" glyph-name="margin" data-tags="margin" d="M64 448v-192h-64v448h64v-192h192v-64h-192zM896 704v-192h-192v-64h192v-192h64v448h-64zM512 256h-64v-192h-192v-64h448v64h-192v192zM448 704h64v192h192v64h-448v-64h192v-192z" />
<glyph unicode="&#xe03c;" glyph-name="margin-top" data-tags="margin-top" d="M384 832h-128v128h448v-128h-128v-128h-192v128zM704 64h-192v192h-64v-192h-192v-64h448v64zM256 448v64h-192v192h-64v-448h64v192h192zM704 512v-64h192v-192h64v448h-64v-192h-192z" />
<glyph unicode="&#xe03d;" glyph-name="margin-right" data-tags="margin-right" d="M832 576v128h128v-448h-128v128h-128v192h128zM64 256v192h192v64h-192v192h-64v-448h64zM448 704h64v192h192v64h-448v-64h192v-192zM512 256h-64v-192h-192v-64h448v64h-192v192z" />
<glyph unicode="&#xe03e;" glyph-name="margin-bottom" data-tags="margin-bottom" d="M576 128h128v-128h-448v128h128v128h192v-128zM256 896h192v-192h64v192h192v64h-448v-64zM704 512v-64h192v-192h64v448h-64v-192h-192zM256 448v64h-192v192h-64v-448h64v192h192z" />
<glyph unicode="&#xe03f;" glyph-name="margin-left" data-tags="margin-left" d="M128 384v-128h-128v448h128v-128h128v-192h-128zM896 704v-192h-192v-64h192v-192h64v448h-64zM512 256h-64v-192h-192v-64h448v64h-192v192zM448 704h64v192h192v64h-448v-64h192v-192z" />
<glyph unicode="&#xe040;" glyph-name="padding" data-tags="padding" d="M256 383.6v64.4h-192v-128h-64v320h64v-128h192v64h64v-192.4h-64zM896 640v-128h-192v64.4h-64v-192.4h64v64h192v-128h64v320h-64zM512 256h64.4v64h-192.4v-64h64v-192h-128v-64h320v64h-128v192zM448 704h-64.4v-64h192.4v64h-64v192h128v64h-320v-64h128v-192z" />
<glyph unicode="&#xe041;" glyph-name="padding-top" data-tags="padding-top" d="M383.6 704h64.4v128h-128v128h320v-128h-128v-128h64v-128h-192.4v128zM640 64h-128v192h64.4v64h-192.4v-64h64v-192h-128v-64h320v64zM256 448v-64.4h64v192.4h-64v-64h-192v128h-64v-320h64v128h192zM704 512v64.4h-64v-192.4h64v64h192v-128h64v320h-64v-128h-192z" />
<glyph unicode="&#xe042;" glyph-name="padding-right" data-tags="padding-right" d="M704 576.4v-64.4h128v128h128v-320h-128v128h-128v-64h-128v192.4h128zM64 320v128h192v-64.4h64v192.4h-64v-64h-192v128h-64v-320h64zM448 704h-64.4v-64h192.4v64h-64v192h128v64h-320v-64h128v-192zM512 256h64.4v64h-192.4v-64h64v-192h-128v-64h320v64h-128v192z" />
<glyph unicode="&#xe043;" glyph-name="padding-bottom" data-tags="padding-bottom" d="M576.4 256h-64.4v-128h128v-128h-320v128h128v128h-64v128h192.4v-128zM320 896h128v-192h-64.4v-64h192.4v64h-64v192h128v64h-320v-64zM704 512v64.4h-64v-192.4h64v64h192v-128h64v320h-64v-128h-192zM256 448v-64.4h64v192.4h-64v-64h-192v128h-64v-320h64v128h192z" />
<glyph unicode="&#xe044;" glyph-name="padding-left" data-tags="padding-left" d="M256 383.6v64.4h-128v-128h-128v320h128v-128h128v64h128v-192.4h-128zM896 640v-128h-192v64.4h-64v-192.4h64v64h192v-128h64v320h-64zM512 256h64.4v64h-192.4v-64h64v-192h-128v-64h320v64h-128v192zM448 704h-64.4v-64h192.4v64h-64v192h128v64h-320v-64h128v-192z" />
<glyph unicode="&#xe045;" glyph-name="border-style" data-tags="border" d="M64 768h64v-640h-64v640zM896 766h64v-640h-64v640zM192 896h640v-64h-640v64zM192 64h640v-64h-640v64z" />
<glyph unicode="&#xe046;" glyph-name="border-style-top" data-tags="border-top" d="M832 896v-128h-640v128h640zM830 64h-640v-64h640v64zM896 768v-640h64v640h-64zM64 768v-640h64v640h-64z" />
<glyph unicode="&#xe047;" glyph-name="border-style-right" data-tags="border-right" d="M960 128h-128v640h128v-640zM128 130v640h-64v-640h64zM832 64h-640v-64h640v64zM832 896h-640v-64h640v64z" />
<glyph unicode="&#xe048;" glyph-name="border-style-bottom" data-tags="border-bottom" d="M192 0v128h640v-128h-640zM194 832h640v64h-640v-64zM128 128v640h-64v-640h64zM960 128v640h-64v-640h64z" />
<glyph unicode="&#xe049;" glyph-name="border-style-left" data-tags="border-left" d="M64 768h128v-640h-128v640zM896 766v-640h64v640h-64zM192 832h640v64h-640v-64zM192 0h640v64h-640v-64z" />
<glyph unicode="&#xe04a;" glyph-name="border-radius" data-tags="border-radius" d="M128 896h192v-64h-192v-192h-64v256h64zM896 64h-192v-64h256v256h-64v-192zM704 896v-64h192v-192h64v256h-256zM128 256h-64v-256h256v64h-192v192z" />
<glyph unicode="&#xe04b;" glyph-name="border-radius-top-right" data-tags="border-radius-top-right" d="M256 672c0 17.6 14.4 32 32 32h128c194 0 352-158 352-352v-128c0-17.6-14.4-32-32-32s-32 14.4-32 32v128c0 158.8-129.2 288-288 288h-128c-17.6 0-32 14.4-32 32z" />
<glyph unicode="&#xe04c;" glyph-name="border-radius-bottom-right" data-tags="border-radius-bottom-right" d="M736 704c17.6 0 32-14.4 32-32v-128c0-194-158-352-352-352h-128c-17.6 0-32 14.4-32 32s14.4 32 32 32h128c158.8 0 288 129.2 288 288v128c0 17.6 14.4 32 32 32z" />
<glyph unicode="&#xe04d;" glyph-name="border-radius-bottom-left" data-tags="border-radius-bottom-left" d="M768 224c0-17.6-14.4-32-32-32h-128c-194 0-352 158-352 352v128c0 17.6 14.4 32 32 32s32-14.4 32-32v-128c0-158.8 129.2-288 288-288h128c17.6 0 32-14.4 32-32z" />
<glyph unicode="&#xe04e;" glyph-name="border-radius-top-left" data-tags="border-radius-top-left" d="M288 192c-17.6 0-32 14.4-32 32v128c0 194 158 352 352 352h128c17.6 0 32-14.4 32-32s-14.4-32-32-32h-128c-158.8 0-288-129.2-288-288v-128c0-17.6-14.4-32-32-32z" />
<glyph unicode="&#xe04f;" glyph-name="outline-width" data-tags="outline-width" d="M832 896h-768v-896h896v896h-128zM832 128h-640v640h640v-640zM320 192h448v512h-512v-512h64zM320 640h384v-384h-384v384z" />
<glyph unicode="&#xe050;" glyph-name="outline-offset" data-tags="outline-offset" d="M896 896h-832v-896h896v896h-64zM896 64h-768v768h768v-768zM320 320v-64h384v384h-384v-320zM384 576h256v-256h-256v256z" />
<glyph unicode="&#xe051;" glyph-name="box-sizing" data-tags="box-sizing" d="M64 960h-64v-960h960v960h-896zM896 64h-832v832h832v-832zM704 704h-64v64h64v-64zM192 576h-64v64h64v-64zM192 704h-64v64h64v-64zM320 704h-64v64h64v-64zM448 704h-64v64h64v-64zM576 704h-64v64h64v-64zM192 448h-64v64h64v-64zM832 704h-64v64h64v-64zM832 448h-64v64h64v-64zM832 576h-64v64h64v-64zM192 192h-64v64h64v-64zM704 192h-64v64h64v-64zM320 192h-64v64h64v-64zM448 192h-64v64h64v-64zM576 192h-64v64h64v-64zM832 192h-64v64h64v-64zM192 320h-64v64h64v-64zM832 320h-64v64h64v-64z" />
<glyph unicode="&#xe052;" glyph-name="position-top" data-tags="position-top" d="M960 64v832h-896v-896h896v64zM128 64v768h768v-768h-768zM192 768h640v-192h-640v192z" />
<glyph unicode="&#xe053;" glyph-name="position-right" data-tags="position-right" d="M128 0h832v896h-896v-896h64zM128 832h768v-768h-768v768zM640 768h192v-640h-192v640z" />
<glyph unicode="&#xe054;" glyph-name="position-bottom" data-tags="position-bottom" d="M64 832v-832h896v896h-896v-64zM896 832v-768h-768v768h768zM192 320h640v-192h-640v192z" />
<glyph unicode="&#xe055;" glyph-name="position-left" data-tags="position-left" d="M896 896h-832v-896h896v896h-64zM896 64h-768v768h768v-768zM192 768h192v-640h-192v640z" />
<glyph unicode="&#xe056;" glyph-name="display-block" data-tags="display-block" d="M64 896h896v-64h-896v64zM64 64h896v-64h-896v64zM64 192h896v512h-896v-512zM192 576h640v-256h-640v256z" />
<glyph unicode="&#xe057;" glyph-name="display-Inline-block" data-tags="display-Inline-block" d="M896 896h64v-896h-64v896zM64 896h64v-896h-64v896zM192 192h640v512h-640v-512zM320 576h384v-256h-384v256z" />
<glyph unicode="&#xe058;" glyph-name="display-flex" data-tags="display-flex" d="M64 896v-896h896v896h-896zM896 64h-768v768h768v-768zM256 704h192v-512h-192v512zM576 704h192v-512h-192v512z" />
<glyph unicode="&#xe059;" glyph-name="display-inline-flex" data-tags="display-inline-flex" d="M192 128h640v640h-640v-640zM256 704h512v-512h-512v512zM320 640h128v-384h-128v384zM576 640h128v-384h-128v384zM64 896h64v-896h-64v896zM896 896h64v-896h-64v896z" />
<glyph unicode="&#xe05a;" glyph-name="gap-column" data-tags="gap-column" d="M64 896v-896h896v896h-896zM896 64h-768v768h768v-768zM192 768h192v-640h-192v640zM640 768h192v-640h-192v640z" />
<glyph unicode="&#xe05b;" glyph-name="gap-row" data-tags="gap-row" d="M960 896h-896v-896h896v896zM128 64v768h768v-768h-768zM192 768h640v-192h-640v192zM192 320h640v-192h-640v192z" />
<glyph unicode="&#xe05c;" glyph-name="handle-resize-alt" data-tags="handle-resize-alt" d="M960 512v-512h-512v128h384v384h128z" />
<glyph unicode="&#xe05d;" glyph-name="handle-resize" data-tags="handle-resize" d="M759 9l-45.2 45.2 192 192 45.2-45.2-192-192zM918.4 425.4l-45.2 45.2-383.8-383.8 45.2-45.2 383.8 383.8z" />
<glyph unicode="&#xe100;" glyph-name="undo" data-tags="undo" d="M959.8 128c-115.4 113.2-273.4 192-447.8 192v-256l-448 384 448 384v-256c244.4 0 443-204.8 447.8-448z" />
<glyph unicode="&#xe101;" glyph-name="redo" data-tags="redo" d="M511.8 576v256l448-384-448-384v256c-174.4 0-332.4-78.8-447.8-192 4.8 243.2 203.6 448 447.8 448z" />
<glyph unicode="&#xe102;" glyph-name="reset" data-tags="reset" d="M124 608l111-64c-27.4-47.2-43-101.8-43-160 0-176.4 143.6-320 320-320s320 143.6 320 320c0 176.4-143.6 320-320 320v-128l-320 192 320 192v-128c247.4 0 448-200.6 448-448s-200.6-448-448-448c-247.4 0-448 200.6-448 448 0 81.6 21.8 158.2 60 224z" />
<glyph unicode="&#xe103;" glyph-name="reload" data-tags="reload" d="M960 384c0-247.4-200.6-448-448-448s-448 200.6-448 448c0 247.4 200.6 448 448 448v128l320-192-320-192v128c-176.4 0-320-143.6-320-320s143.6-320 320-320c176.4 0 320 143.6 320 320 0 58.2-15.6 112.8-43 160l111 64c38.2-65.8 60-142.4 60-224z" />
<glyph unicode="&#xe104;" glyph-name="non-recurrence" data-tags="non, recurrence" d="M642 91.6l95-95c-66-38.6-143-60.6-225-60.6-247.4 0-448 200.6-448 448 0 82 22 159 60.6 225.2l95-95c-17.8-39.8-27.6-83.8-27.6-130 0-176.4 143.6-320 320-320 46.2-0.2 90.4 9.6 130 27.4zM878.6 126.6c25.8 36.6 46.2 77.4 60.2 120.8 13.8 43 21.2 89 21.2 136.6 0 81.6-21.8 158.2-60 224l-111-64c27.2-47 43-101.8 43-160 0-9.6-0.4-19-1.2-28.4-4.4-49.6-20.2-95.8-44.6-136.4l-439 439c40.6 24.4 86.8 40.2 136.4 44.6 9.4 0.8 18.8 1.2 28.4 1.2v-128l320 192-320 192v-128c-47.6 0-93.4-7.4-136.6-21.2-43.6-14-84.2-34.4-120.8-60.2l-209.4 209.4-45.2-45.2 978.8-978.8 45.2 45.2-145.4 145.4z" />
<glyph unicode="&#xe105;" glyph-name="reset-sm" data-tags="reset, sm" d="M202.8 482.8l92.8-24.8c-5-18.6-7.6-38-7.6-58 0-123.6 100.4-224 224-224s224 100.4 224 224c0 123.6-100.4 224-224 224v-112l-256 160 256 160v-112c176.8 0 320-143.2 320-320s-143.2-320-320-320c-176.8 0-320 143.2-320 320 0 28.6 3.8 56.4 10.8 82.8z" />
<glyph unicode="&#xe106;" glyph-name="reload-sm" data-tags="reload, sm" d="M832 400c0-176.8-143.2-320-320-320s-320 143.2-320 320c0 176.8 143.2 320 320 320v112l256-160-256-160v112c-123.6 0-224-100.4-224-224s100.4-224 224-224c123.6 0 224 100.4 224 224 0 20-2.6 39.4-7.6 58l92.8 24.8c7-26.4 10.8-54.2 10.8-82.8z" />
<glyph unicode="&#xe107;" glyph-name="clock" data-tags="clock" d="M512 704h-64v-320h320v64h-256v256zM512 896c-247.4 0-448-200.6-448-448s200.6-448 448-448c247.4 0 448 200.6 448 448s-200.6 448-448 448zM512 64c-211.8 0-384 172.2-384 384s172.2 384 384 384c211.8 0 384-172.2 384-384s-172.2-384-384-384z" />
<glyph unicode="&#xe108;" glyph-name="calendar" data-tags="calendar" d="M832 128h-256v256h256v-256zM960.2 832v-768.2c0-35.2-28.8-64-64-64h-768.2c-35.2 0-64 28.8-64 64v768.2c0 35.2 28.8 64 64 64h128v64h128v-64h256v64h128v-64h128.2c35.2 0 64-28.8 64-64zM896.2 576h-768.2v-512c0.2-0.2 0.2-0.2 0.2-0.2l768 0.2v512zM896.2 831.8c-0.2 0.2-0.2 0.2-0.2 0.2h-128v-64h-128v64h-256v-64h-128v64h-127.8c-0.2-0.2-0.2-0.2-0.2-0.2v-191.8h768.2v191.8z" />
<glyph unicode="&#xe109;" glyph-name="save" data-tags="save" d="M768 896h-640c-35.2 0-64-28.8-64-64v-768c0-35.2 28.8-64 64-64h768c35.2 0 64 28.8 64 64v640l-192 192zM640 832v-256h-128v256h128zM896.2 64.2l-768-0.2c0 0 0 0-0.2 0.2v767.6c0 0 0 0 0.2 0.2h63.8v-320h512v320h37.6l154.6-154.6v-613.2z" />
<glyph unicode="&#xe10a;" glyph-name="print" data-tags="print" d="M896 640h-64v128l-128 128h-448c-35.4 0-64-28.6-64-64v-192h-64c-35.2 0-64-28.8-64-64v-320c0-35.2 28.8-64 64-64h64v-128c0-35.2 28.8-64 64-64h512c35.2 0 64 28.8 64 64v128h64c35.2 0 64 28.8 64 64v320c0 35.2-28.8 64-64 64zM256 832h384v-128h128v-128h-512v256zM896 320h-128v-255.8c0 0 0 0-0.2-0.2h-511.6c0 0 0 0-0.2 0.2v255.8h-128v64h768v-64zM320 320h384v-64h-384v64zM320 192h320v-64h-320v64z" />
<glyph unicode="&#xe10b;" glyph-name="edit" data-tags="edit" d="M669.8 786.8l90.6 90.6c24.8 24.8 65.6 24.8 90.6 0l90.6-90.6c24.8-24.8 24.8-65.6 0-90.6l-90.6-90.6-181.2 181.2zM624.6 741.6l-560.6-560.6v-181h181l560.6 560.6-181 181zM199.8 135.8l-45.2 45.2 470 470 45.2-45.2-470-470z" />
<glyph unicode="&#xe10c;" glyph-name="delete" data-tags="delete" d="M832 768h-192v64c0 35.2-28.8 64-64 64h-192c-35.2 0-64-28.8-64-64v-64h-192v-128h64v-576c0-35.2 28.8-64 64-64h448c35.2 0 64 28.8 64 64v576h64v128zM384 832h191.8c0 0 0 0 0.2-0.2v-63.8h-192c0.2 0.2 0.2 64.2 0 64zM704 64h-447.8c0 0 0 0-0.2 0.2v575.8h64v-512h64v512h64v-512h64v512h64v-512h64v512h64v-576z" />
<glyph unicode="&#xe10d;" glyph-name="attachment" data-tags="attachment" d="M768 704v-512h-64v512c0 105.8-86.2 192-192 192s-192-86.2-192-192v-576c0-70.6 57.4-128 128-128s128 57.4 128 128v576c0 35.2-28.8 64-64 64s-64-28.8-64-64v-512h-64v512c0 70.6 57.4 128 128 128s128-57.4 128-128v-576c0-105.8-86.2-192-192-192s-192 86.2-192 192v576c0 141.2 114.8 256 256 256s256-114.8 256-256z" />
<glyph unicode="&#xe10e;" glyph-name="attachment-45" data-tags="attachment, 45" d="M814 55.8c-37.2-37.2-86-55.8-135-55.8s-97.8 18.6-135.2 55.8l-405.2 405.4c-99.4 99.4-99.4 261 0 360.4s261 99.4 360.4 0l360.4-360.4-45.4-45-360.2 360.2c-74.4 74.4-195.8 74.4-270.2 0s-74.4-195.8 0-270.2l405.4-405.4c49.6-49.6 130.4-49.6 180.2 0 49.6 49.6 49.6 130.4 0 180.2l-405.4 405.4c-24.8 24.8-65.4 24.8-90 0s-24.8-65.4 0-90l360.2-360.4-45-45-360.4 360.2c-49.6 49.6-49.6 130.4 0 180.2s130.4 49.6 180.2 0l405.2-405.4c74.6-74.4 74.6-195.8 0-270.2z" />
<glyph unicode="&#xe10f;" glyph-name="link-horizontal" data-tags="link, horizontal" d="M768 192c-94.8 0-177.4 51.6-221.6 128h221.6c70.8 0 128 57.2 128 128s-57.4 128-128 128h-221.6c44.2 76.4 127 128 221.6 128 141.4 0 256-114.6 256-256s-114.6-256-256-256v0 0zM192 448c0 35.4 28.6 64 64 64h512c35.4 0 64-28.6 64-64s-28.6-64-64-64h-512c-35.4 0-64 28.6-64 64v0zM128 448c0-70.8 57.2-128 128-128h221.6c-44.2-76.4-127-128-221.6-128-141.4 0-256 114.6-256 256s114.6 256 256 256c94.8 0 177.4-51.6 221.6-128h-221.6c-70.8 0-128-57.2-128-128v0z" />
<glyph unicode="&#xe110;" glyph-name="unlink-horizontal" data-tags="unlink, horizontal" d="M768 192c-94.8 0-177.4 51.6-221.6 128h221.6c70.8 0 128 57.2 128 128s-57.4 128-128 128h-221.6c44.2 76.4 127 128 221.6 128 141.4 0 256-114.6 256-256s-114.6-256-256-256v0 0zM128 448c0-70.8 57.2-128 128-128h221.6c-44.2-76.4-127-128-221.6-128-141.4 0-256 114.6-256 256s114.6 256 256 256c94.8 0 177.4-51.6 221.6-128h-221.6c-70.6 0-128-57.2-128-128v0zM544 764.8v195.2h-64v-195.2c10.4 2 21 3.2 32 3.2s21.6-1.2 32-3.2zM423.8 741.4l-138 138-45.2-45.2 138-138c11.8 18 27.2 33.4 45.2 45.2zM645.4 696.2l138 138-45.2 45.2-138-138c18-11.8 33.4-27.2 45.2-45.2zM512 128c-11 0-21.6 1.2-32 3.2v-195.2h64v195.2c-10.4-2-21-3.2-32-3.2zM378.6 199.8l-138-138 45.2-45.2 138 138c-18 11.8-33.4 27.2-45.2 45.2zM600.2 154.6l138-138 45.2 45.2-138 138c-11.8-18-27.2-33.4-45.2-45.2z" />
<glyph unicode="&#xe111;" glyph-name="link-vertical" data-tags="link, vertical" d="M256 192c0 94.8 51.6 177.4 128 221.6v-221.6c0-70.8 57.2-128 128-128s128 57.4 128 128v221.6c76.4-44.2 128-127 128-221.6 0-141.4-114.6-256-256-256s-256 114.6-256 256v0 0zM512 768c35.4 0 64-28.6 64-64v-512c0-35.4-28.6-64-64-64s-64 28.6-64 64v512c0 35.4 28.6 64 64 64v0zM512 832c-70.8 0-128-57.2-128-128v-221.6c-76.4 44.2-128 127-128 221.6 0 141.4 114.6 256 256 256s256-114.6 256-256c0-94.8-51.6-177.4-128-221.6v221.6c0 70.8-57.2 128-128 128v0z" />
<glyph unicode="&#xe112;" glyph-name="unlink-vertical" data-tags="unlink, vertical" d="M828.8 416h195.2v64h-195.2c2-10.4 3.2-21 3.2-32s-1-21.6-3.2-32zM805.6 536.2l138 138-45.2 45.2-138-138c17.8-11.8 33.2-27.2 45.2-45.2zM760.2 314.6l138-138 45.2 45.2-138 138c-11.8-18-27.2-33.4-45.2-45.2zM192 448c0 11 1.2 21.6 3.2 32h-195.2v-64h195.2c-2 10.4-3.2 21-3.2 32zM263.8 581.6l-138 138-45.2-45.2 138-138c11.8 17.8 27.2 33.2 45.2 45.2zM218.6 359.8l-138-138 45.2-45.2 138 138c-18 11.8-33.4 27.2-45.2 45.2zM256 192c0 94.8 51.6 177.4 128 221.6v-221.6c0-70.8 57.2-128 128-128s128 57.4 128 128v221.6c76.4-44.2 128-127 128-221.6 0-141.4-114.6-256-256-256s-256 114.6-256 256v0 0zM512 832c-70.8 0-128-57.2-128-128v-221.6c-76.4 44.2-128 127-128 221.6 0 141.4 114.6 256 256 256s256-114.6 256-256c0-94.8-51.6-177.4-128-221.6v221.6c0 70.8-57.2 128-128 128v0z" />
<glyph unicode="&#xe113;" glyph-name="lock" data-tags="lock" d="M768 512h-64v192c0 106-86 192-192 192s-192-86-192-192v-192h-64c-35.2 0-64-28.8-64-64v-384c0-35.2 28.8-64 64-64h512c35.2 0 64 28.8 64 64v384c0 35.2-28.8 64-64 64zM384 704c0 70.6 57.4 128 128 128s128-57.4 128-128v-192h-256v192zM512 192c-35.4 0-64 28.6-64 64s28.6 64 64 64c35.4 0 64-28.6 64-64s-28.6-64-64-64z" />
<glyph unicode="&#xe114;" glyph-name="unlock" data-tags="unlock" d="M832 512h-384v192c0 106-86 192-192 192s-192-86-192-192v-256h64v256c0 70.6 57.4 128 128 128s128-57.4 128-128v-192h-64c-35.2 0-64-28.8-64-64v-384c0-35.2 28.8-64 64-64h512c35.2 0 64 28.8 64 64v384c0 35.2-28.8 64-64 64zM576 192c-35.4 0-64 28.6-64 64s28.6 64 64 64c35.4 0 64-28.6 64-64s-28.6-64-64-64z" />
<glyph unicode="&#xe115;" glyph-name="cancel" data-tags="cancel" d="M512 896c-100.6 0-193.6-33.2-268.2-89.2-34.4-25.6-64.8-56.2-90.6-90.6-56-74.6-89.2-167.6-89.2-268.2 0-247.4 200.6-448 448-448 100.6 0 193.6 33.2 268.2 89.2 34.4 25.6 64.8 56.2 90.6 90.6 56 74.8 89.2 167.6 89.2 268.2 0 247.4-200.6 448-448 448zM512 128c-176.4 0-320 143.6-320 320 0 65.2 19.6 125.8 53.2 176.4l443.2-443.2c-50.6-33.6-111.2-53.2-176.4-53.2zM778.8 271.6l-443.2 443.2c50.6 33.6 111.2 53.2 176.4 53.2 176.4 0 320-143.6 320-320 0-65.2-19.6-125.8-53.2-176.4z" />
<glyph unicode="&#xe116;" glyph-name="cancel-outline" data-tags="cancel, outline" d="M512 896c-112.2 0-214.8-41.2-293.4-109.4-16.2-14-31.2-29.2-45.2-45.2-68.2-78.6-109.4-181.2-109.4-293.4 0-247.4 200.6-448 448-448 112.2 0 214.8 41.2 293.4 109.4 16.2 14 31.2 29.2 45.2 45.2 68.2 78.6 109.4 181.2 109.4 293.4 0 247.4-200.6 448-448 448v0zM512 64c-212 0-384 172-384 384 0 94.4 34.2 181 90.8 248l541.2-541.2c-67-56.6-153.6-90.8-248-90.8zM805.2 200l-541.2 541.2c67 56.6 153.6 90.8 248 90.8 212 0 384-172 384-384 0-94.4-34.2-181-90.8-248z" />
<glyph unicode="&#xe117;" glyph-name="cancel-circle" data-tags="cancel, circle" d="M338.8 530.8l256-256c-25-12-53.2-18.8-82.8-18.8-105.8 0-192 86.2-192 192 0 29.6 6.8 57.6 18.8 82.8zM512 640c-29.6 0-57.6-6.8-82.8-18.8l256-256c12 25 18.8 53.2 18.8 82.8 0 105.8-86.2 192-192 192zM960 448c0-247.4-200.6-448-448-448s-448 200.6-448 448c0 247.4 200.6 448 448 448s448-200.6 448-448zM832 448c0 176.4-143.6 320-320 320-65.2 0-125.8-19.6-176.4-53.2-35.8-23.8-66.8-54.6-90.6-90.6-33.4-50.4-53-111-53-176.2 0-176.4 143.6-320 320-320 65.2 0 125.8 19.6 176.4 53.2 35.8 23.8 66.8 54.6 90.6 90.6 33.4 50.4 53 111 53 176.2z" />
<glyph unicode="&#xe118;" glyph-name="check" data-tags="check" d="M869.4 794.6l90.6-90.6-576-576-320 320 90.6 90.6 229.4-229.6 485.4 485.6z" />
<glyph unicode="&#xe119;" glyph-name="check-outline" data-tags="check, outline" d="M512 896c-247.4 0-448-200.6-448-448s200.6-448 448-448c247.4 0 448 200.6 448 448s-200.6 448-448 448zM512 64c-212 0-384 172-384 384s172 384 384 384c212 0 384-172 384-384s-172-384-384-384zM448 372l-166 166-90-90 256-256 352 352-90 90-262-262z" />
<glyph unicode="&#xe11a;" glyph-name="check-circle" data-tags="check, circle" d="M512 896c-247.4 0-448-200.6-448-448s200.6-448 448-448c247.4 0 448 200.6 448 448s-200.6 448-448 448zM448 192l-256 256 90 90 166-166 294 294 90-90-384-384z" />
<glyph unicode="&#xe11b;" glyph-name="close" data-tags="close" d="M832 677.4l-229.4-229.4 229.4-229.4-90.6-90.6-229.4 229.4-229.4-229.4-90.6 90.6 229.4 229.4-229.4 229.4 90.6 90.6 229.4-229.4 229.4 229.4 90.6-90.6z" />
<glyph unicode="&#xe11c;" glyph-name="close-outline" data-tags="close, outline" d="M768 282.6l-90.6-90.6-165.4 165.4-165.4-165.4-90.6 90.6 165.4 165.4-165.4 165.4 90.6 90.6 165.4-165.4 165.4 165.4 90.6-90.6-165.4-165.4 165.4-165.4zM512 896c-247.4 0-448-200.6-448-448s200.6-448 448-448c247.4 0 448 200.6 448 448s-200.6 448-448 448zM512 64c-212 0-384 172-384 384s172 384 384 384c212 0 384-172 384-384s-172-384-384-384z" />
<glyph unicode="&#xe11d;" glyph-name="close-circle" data-tags="close, circle" d="M512 896c-247.4 0-448-200.6-448-448s200.6-448 448-448c247.4 0 448 200.6 448 448s-200.6 448-448 448zM768 282.6l-90.6-90.6-165.4 165.4-165.4-165.4-90.6 90.6 165.4 165.4-165.4 165.4 90.6 90.6 165.4-165.4 165.4 165.4 90.6-90.6-165.4-165.4 165.4-165.4z" />
<glyph unicode="&#xe11e;" glyph-name="plus" data-tags="plus" d="M576 512v256h-128v-256h-256v-128h256v-256h128v256h256v128h-256z" />
<glyph unicode="&#xe11f;" glyph-name="plus-outline" data-tags="plus, outline" d="M576 384v-192h-128v192h-192v128h192v192h128v-192h192v-128h-192zM512 896c-247.4 0-448-200.6-448-448s200.6-448 448-448c247.4 0 448 200.6 448 448s-200.6 448-448 448zM512 64c-212 0-384 172-384 384s172 384 384 384c212 0 384-172 384-384s-172-384-384-384z" />
<glyph unicode="&#xe120;" glyph-name="plus-circle" data-tags="plus, circle" d="M512 896c-247.4 0-448-200.6-448-448s200.6-448 448-448c247.4 0 448 200.6 448 448s-200.6 448-448 448zM576 384v-192h-128v192h-192v128h192v192h128v-192h192v-128h-192z" />
<glyph unicode="&#xe121;" glyph-name="minus" data-tags="minus" d="M192 512v-128h640v128h-640z" />
<glyph unicode="&#xe122;" glyph-name="minus-outline" data-tags="minus, outline" d="M256 512h512v-128h-512v128zM512 896c-247.4 0-448-200.6-448-448s200.6-448 448-448c247.4 0 448 200.6 448 448s-200.6 448-448 448zM512 64c-212 0-384 172-384 384s172 384 384 384c212 0 384-172 384-384s-172-384-384-384z" />
<glyph unicode="&#xe123;" glyph-name="minus-circle" data-tags="minus, circle" d="M512 896c-247.4 0-448-200.6-448-448s200.6-448 448-448c247.4 0 448 200.6 448 448s-200.6 448-448 448zM256 384v128h512v-128h-512z" />
<glyph unicode="&#xe124;" glyph-name="sort-asc" data-tags="sort, asc" d="M192 256h640v-128h-640v128zM192 512h448v-128h-448v128zM192 768h256v-128h-256v128z" />
<glyph unicode="&#xe125;" glyph-name="sort-desc" data-tags="sort, desc" d="M192 768h640v-128h-640v128zM192 512h448v-128h-448v128zM192 256h256v-128h-256v128z" />
<glyph unicode="&#xe126;" glyph-name="unsort" data-tags="unsort" d="M221.8 512l128-128h-157.8v128h29.8zM192 128h256v128h-256v-128zM621.2 384h18.8v128h-146.8l-128 128h466.8v128h-594.8l-128 128-45.2-45.2 850.8-850.8 45.2 45.2-338.8 338.8z" />
<glyph unicode="&#xe127;" glyph-name="sort-asc-sm" data-tags="sort, asc, sm" d="M512 576v-448h-64v448h-192l224 256 224-256h-192z" />
<glyph unicode="&#xe128;" glyph-name="sort-desc-sm" data-tags="sort, desc, sm" d="M704 384l-224-256-224 256h192v448h64v-448h192z" />
<glyph unicode="&#xe129;" glyph-name="filter" data-tags="filter" d="M128 832v-64l320-320v-448l128 128v320l320 320v64h-768z" />
<glyph unicode="&#xe12a;" glyph-name="filter-clear" data-tags="filter, clear" d="M287 832l336.4-336.4-47.4-47.6v-320l-128-128v448l-320 320v64h159zM759.2 631.2l136.8 136.8v64h-337.4l-128 128-46.6-44 596-596 44 46.6-264.8 264.6z" />
<glyph unicode="&#xe12b;" glyph-name="filter-sm" data-tags="filter, sm" d="M256 704h512v-64l-192-192v-192l-128-128v320l-192 192v64z" />
<glyph unicode="&#xe12c;" glyph-name="filter-sort-asc-sm" data-tags="filter, sort, asc, sm" d="M896 704v-64l-192-192v-128l-64-128v256l-192 192v64h448zM128 512h128v-320h64v320h128l-160 192-160-192z" />
<glyph unicode="&#xe12d;" glyph-name="filter-sort-desc-sm" data-tags="filter, sort, desc, sm" d="M896 704v-64l-192-192v-128l-64-128v256l-192 192v64h448zM288 192l160 192h-128v320h-64v-320h-128l160-192z" />
<glyph unicode="&#xe12e;" glyph-name="filter-add-expression" data-tags="filter, add, expression" d="M960 832v-64h-896v64h896zM576 640h384v64h-384v-64zM576 384h384v128h-384v-128zM576 192h384v64h-384v-64zM576 64h384v64h-384v-64zM192 256h128v128h128v128h-128v128h-128v-128h-128v-128h128v-128z" />
<glyph unicode="&#xe12f;" glyph-name="filter-add-group" data-tags="filter, add, group" d="M704 256v-64h-64v-128h64v-64h-128v256h128zM832 256v-64h64v-128h-64v-64h128v256h-128zM320 640h-128v-128h-128v-128h128v-128h128v128h128v128h-128v128zM576 640h384v64h-384v-64zM64 832v-64h896v64h-896zM576 384h384v128h-384v-128z" />
<glyph unicode="&#xe130;" glyph-name="login" data-tags="login" d="M768 0v0h192v896h-192v-896zM64 512v-128h256v-192l320 256-320 256v-192h-256z" />
<glyph unicode="&#xe131;" glyph-name="logout" data-tags="logout" d="M256 896v0h-192v-896h192v896zM384 512v-128h256v-192l320 256-320 256v-192h-256z" />
<glyph unicode="&#xe132;" glyph-name="download" data-tags="download" d="M64 192v0-192h896v192h-896zM576 896h-128v-256h-192l256-320 256 320h-192v256z" />
<glyph unicode="&#xe133;" glyph-name="upload" data-tags="upload" d="M64 192v0-192h896v192h-896zM448 320h128v256h192l-256 320-256-320h192v-256z" />
<glyph unicode="&#xe134;" glyph-name="hyperlink-open" data-tags="hyperlink, open" d="M64 0h896v448h-64v-384h-768v768h384v64h-448v-896zM640 896l114.8-114.8-306.8-306.6 90.6-90.6 306.6 306.8 114.8-114.8v320h-320z" />
<glyph unicode="&#xe135;" glyph-name="hyperlink-open-sm" data-tags="hyperlink, open, sm" d="M192 128h640v192h-64v-128h-512v512h128v64h-192v-640zM512 768h320v-320l-114.8 114.8-242.6-242.8-90.6 90.6 242.8 242.8-1 1-113.8 113.6z" />
<glyph unicode="&#xe136;" glyph-name="launch" data-tags="launch" d="M192 768v-640h192v64h-128v512h512v-128h64v192h-640zM832 448v-320h-320l114.8 114.8-242.8 242.6 90.6 90.6 242.8-242.8 1 1 113.6 113.8z" />
<glyph unicode="&#xe137;" glyph-name="window" data-tags="window" d="M192 768v-640h640v640h-640zM768 192h-512v384h512v-384z" />
<glyph unicode="&#xe138;" glyph-name="windows" data-tags="windows" d="M896 896v-576h-64v384h-512v192h576zM128 576h576v-576h-576v576zM192 64h448v320h-448v-320z" />
<glyph unicode="&#xe139;" glyph-name="window-minimize" data-tags="window, minimize" d="M832 384v-128h-640v128h640z" />
<glyph unicode="&#xe13a;" glyph-name="gear" data-tags="gear" d="M925.4 324.2l-83 62.8c3.6 19.8 5.6 40.2 5.6 61s-2 41.2-5.6 61l83 62.8c12.8 9.8 16.4 27.6 8.4 41.6l-67.8 117.4c-8 14-25.2 19.8-40.2 13.4l-96-40.4c-30.8 26.4-66.6 47.2-105.6 61l-12.6 103.2c-2 16-15.6 28-31.8 28h-135.6c-16.2 0-29.8-12-31.8-28l-13-103.2c-39-13.8-74.8-34.6-105.6-61l-96 40.4c-14.8 6.2-32 0.4-40.2-13.4l-67.8-117.4c-8-14-4.4-31.8 8.4-41.6l83-62.8c-3.2-19.8-5.2-40.2-5.2-61s2-41.2 5.6-61l-83-62.8c-12.8-9.8-16.4-27.6-8.4-41.6l67.8-117.4c8-14 25.2-19.8 40.2-13.4l96 40.4c30.8-26.4 66.6-47.2 105.6-61l13-103.2c2-16 15.6-28 31.8-28h135.6c16.2 0 29.8 12 31.8 28l13 103.2c39 13.8 74.8 34.6 105.6 61l96-40.4c14.8-6.2 32-0.4 40.2 13.4l67.8 117.4c7.4 14 3.8 31.8-9.2 41.6zM512 280c-92.8 0-168 75.2-168 168s75.2 168 168 168c92.8 0 168-75.2 168-168s-75.2-168-168-168z" />
<glyph unicode="&#xe13b;" glyph-name="gears" data-tags="gears" d="M663.8 231.6l-59.2 44.8c2.6 14.2 4 28.6 4 43.6 0 14.8-1.4 29.4-4 43.6l59.2 44.8c9.2 7 11.8 19.6 6 29.6l-48.4 84c-5.8 10-18 14.2-28.6 9.6l-68.8-29c-22 18.8-47.6 33.8-75.4 43.6l-9.2 73.8c-1.4 11.4-11.2 20-22.6 20h-96.8c-11.6 0-21.2-8.6-22.6-20l-9.2-73.8c-27.8-9.8-53.4-24.8-75.4-43.6l-68.6 29c-10.6 4.4-23 0.4-28.6-9.6l-48.6-84c-5.8-10-3.2-22.6 6-29.6l59.2-44.8c-2.6-14.2-4-28.6-4-43.6 0-14.8 1.4-29.4 4-43.6l-59.2-44.8c-9.2-7-11.8-19.6-6-29.6l48.4-84c5.8-10 18-14.2 28.6-9.6l68.6 29c22-18.8 47.6-33.8 75.4-43.6l9.2-73.8c1.4-11.4 11.2-20 22.6-20h96.8c11.6 0 21.2 8.6 22.6 20l9.2 73.8c27.8 9.8 53.4 24.8 75.4 43.6l68.6-29c10.6-4.4 23-0.4 28.6 9.6l48.4 83.8c6 10 3.6 22.8-5.6 29.8zM368.4 200c-66.2 0-120 53.8-120 120s53.8 120 120 120c66.2 0 120-53.8 120-120s-53.8-120-120-120zM954.6 651l-35.8 27c1.6 8.4 2.4 17.2 2.4 26 0 9-0.8 17.6-2.4 26l35.6 26.8c5.4 4.2 7 11.8 3.6 17.8l-29 50.4c-3.6 6-10.8 8.4-17.2 5.6l-41.2-17.4c-13.4 11.4-28.6 20.2-45.4 26.2l-5.4 44.6c-0.8 6.8-6.6 12-13.6 12h-58c-6.8 0-12.8-5-13.6-12l-5.4-44.4c-16.6-5.8-32-15-45.4-26.2l-41.2 17.4c-6.4 2.8-13.8 0.2-17.2-5.6l-29-50.4c-3.6-6-2-13.8 3.6-17.8l35.6-26.8c-1.6-8.4-2.4-17.2-2.4-26 0-9 0.8-17.6 2.4-26l-35.6-27.2c-5.4-4.2-7-11.8-3.6-17.8l29-50.4c3.6-6 10.8-8.4 17.2-5.6l41.2 17.4c13.4-11.4 28.6-20.2 45.4-26.2l5.4-44.4c0.8-6.8 6.6-12 13.6-12h58c6.8 0 12.8 5 13.6 12l5.4 44.4c16.6 5.8 32 15 45.4 26.2l41.2-17.4c6.4-2.8 13.8-0.2 17.2 5.6l29 50.4c3.6 6 2 13.8-3.4 17.8zM777.2 632c-39.8 0-72.2 32.4-72.2 72.2s32.4 72.2 72.2 72.2c39.8 0 72.2-32.4 72.2-72.2-0.2-39.8-32.2-72.2-72.2-72.2z" />
<glyph unicode="&#xe13c;" glyph-name="wrench" data-tags="wrench" d="M941.4 154.6l-329.4 329.2c18 37.6 28 79.6 28 124.2 0 159-129 288-288 288-44.4 0-86.6-10-124.2-28l152.8-152.8c24.8-24.8 24.8-65.6 0-90.6l-45.2-45.2c-24.8-24.8-65.6-24.8-90.6 0l-152.8 152.8c-18-37.6-28-79.8-28-124.2 0-159 129-288 288-288 44.6 0 86.8 10.2 124.4 28.2l329.4-329.4c24.6-25 65.4-25 90.2-0.2l45.4 45.4c24.8 24.8 24.8 65.6 0 90.6zM896 109l-45.2-45-319.2 319c16.6 13.4 31.8 28.6 45.2 45.2l319.2-319.2z" />
<glyph unicode="&#xe13d;" glyph-name="preview" data-tags="preview" d="M512 704c-189.6 0-359.6-103-448-256 88.6-153 258.6-256 448-256s359.6 103 448 256c-88.4 153-258.4 256-448 256zM448 576c35.4 0 64-28.6 64-64s-28.6-64-64-64c-35.4 0-64 28.6-64 64s28.6 64 64 64zM139.6 448c36.8 52.8 89.6 97.4 145.2 130.2 24.4 14.4 50.2 26.4 76.8 35.8-45.2-41-73.6-100.2-73.6-166s28.4-125 73.6-166c-26.6 9.4-52.4 21.4-76.8 35.8-55.6 32.8-108.4 77.4-145.2 130.2zM739.2 317.8c-24.4-14.4-50.2-26.4-76.8-35.8 45.2 41 73.6 100.2 73.6 166s-28.4 125-73.6 166c26.6-9.4 52.4-21.4 76.8-35.8 55.6-32.8 108.4-77.4 145.2-130.2-37-52.8-89.6-97.4-145.2-130.2z" />
<glyph unicode="&#xe13e;" glyph-name="zoom" data-tags="zoom" d="M730.6 320h-45.4l-53.4 53.4c45.2 55.2 72.2 125.8 72.2 202.6 0 176.8-143.2 320-320 320s-320-143.2-320-320c0-176.8 143.2-320 320-320 76.8 0 147.4 27 202.6 72.2l53.4-53.4v-45.4l229.4-229.4 90.6 90.6-229.4 229.4zM128 576c0 141.4 114.6 256 256 256s256-114.6 256-256c0-141.4-114.6-256-256-256s-256 114.6-256 256z" />
<glyph unicode="&#xe13f;" glyph-name="zoom-in" data-tags="zoom, in" d="M576 512h-128v-128h-128v128h-128v128h128v128h128v-128h128v-128zM960 90.6l-90.6-90.6-229.4 229.4v45.4l-53.4 53.4c-55.2-45.2-125.8-72.2-202.6-72.2-176.8 0-320 143.2-320 320s143.2 320 320 320c176.8 0 320-143.2 320-320 0-76.8-27-147.4-72.2-202.6l53.4-53.4h45.4l229.4-229.4zM384 320c141.4 0 256 114.6 256 256s-114.6 256-256 256c-141.4 0-256-114.6-256-256s114.6-256 256-256z" />
<glyph unicode="&#xe140;" glyph-name="zoom-out" data-tags="zoom, out" d="M576 512h-384v128h384v-128zM960 90.6l-90.6-90.6-229.4 229.4v45.4l-53.4 53.4c-55.2-45.2-125.8-72.2-202.6-72.2-176.8 0-320 143.2-320 320s143.2 320 320 320c176.8 0 320-143.2 320-320 0-76.8-27-147.4-72.2-202.6l53.4-53.4h45.4l229.4-229.4zM384 320c141.4 0 256 114.6 256 256s-114.6 256-256 256c-141.4 0-256-114.6-256-256s114.6-256 256-256z" />
<glyph unicode="&#xe141;" glyph-name="pan" data-tags="pan" d="M768 320v64h-192v-192h64l-128-192-128 192h64v192h-192v-64l-192 128 192 128v-64h192v192h-64l128 192 128-192h-64v-192h192v64l192-128-192-128z" />
<glyph unicode="&#xe142;" glyph-name="calculator" data-tags="calculator" d="M128 832v-768h768v768h-768zM320 128h-128v128h128v-128zM320 320h-128v128h128v-128zM512 128h-128v128h128v-128zM512 320h-128v128h128v-128zM832 128h-192v320h192v-320zM832 576h-640v192h640v-192z" />
<glyph unicode="&#xe143;" glyph-name="cart" data-tags="cart" d="M384 224c0-53.020-42.98-96-96-96s-96 42.98-96 96c0 53.020 42.98 96 96 96s96-42.98 96-96zM672 320c-53.020 0-96-42.98-96-96s42.98-96 96-96c53.020 0 96 42.98 96 96s-42.98 96-96 96zM256 768v64h-192v-64h128v-384h576v64h-512v320zM320 512h512v64h-512v-64zM320 704v-64h576v64h-576z" />
<glyph unicode="&#xe144;" glyph-name="connector" data-tags="connector" d="M832 736c0-53.020-42.98-96-96-96-41.796 0-77.334 26.718-90.516 64h-133.484v-576h-197.484c-13.182-37.282-48.72-64-90.516-64-53.020 0-96 42.98-96 96s42.98 96 96 96c41.796 0 77.334-26.718 90.516-64h133.484v576h197.484c13.182 37.282 48.72 64 90.516 64 53.020 0 96-42.98 96-96z" />
<glyph unicode="&#xe145;" glyph-name="plus-sm" data-tags="plus, sm" d="M704 512v-128h-128v-128h-128v128h-128v128h128v128h128v-128h128z" />
<glyph unicode="&#xe146;" glyph-name="minus-sm" data-tags="minus, sm" d="M704 512v-128h-384v128h384z" />
<glyph unicode="&#xe147;" glyph-name="kpi-status-deny" data-tags="kpi, status, deny" d="M960 448l-448-448-448 448 448 448 448-448z" />
<glyph unicode="&#xe148;" glyph-name="kpi-status-hold" data-tags="kpi, status, hold" d="M512 832l-448-768h896" />
<glyph unicode="&#xe149;" glyph-name="kpi-status-open" data-tags="kpi, status, open" d="M960 448c0-247.4-200.6-448-448-448s-448 200.6-448 448c0 247.4 200.6 448 448 448s448-200.6 448-448z" />
<glyph unicode="&#xe14a;" glyph-name="equal" data-tags="equal" d="M192 384h640v-128h-640v128zM192 640v-128h640v128h-640z" />
<glyph unicode="&#xe14b;" glyph-name="not-equal" data-tags="not, equal" d="M581.4 512l-74.6-128h325.2v-128h-400l-112-192h-96l112 192h-144v128h218.6l74.6 128h-293.2v128h368l112 192h96l-112-192h176v-128h-250.6z" />
<glyph unicode="&#xe14c;" glyph-name="less-or-equal" data-tags="less, or, equal" d="M636.2 256l-320 320 320 320 67.8-67.8-252.2-252.2 252.2-252.2-67.8-67.8zM256 128v-64h512v64h-512z" />
<glyph unicode="&#xe14d;" glyph-name="greater-or-equal" data-tags="greater, or, equal" d="M320 323.8l252.2 252.2-252.2 252.2 67.8 67.8 320-320-320-320-67.8 67.8zM256 128v-64h512v64h-512z" />
<glyph unicode="&#xe14e;" glyph-name="divide" data-tags="divide" d="M832 832l-448-768h-128l448 768h128z" />
<glyph unicode="&#xe14f;" glyph-name="accessibility" data-tags="accessibility" d="M416 864c0 53 43 96 96 96s96-43 96-96-43-96-96-96-96 43-96 96zM896 640v64h-768v-64l256-32v-160l-64-448h96l64 320h64l64-320h96l-64 448v160l256 32z" />
<glyph unicode="&#xe150;" glyph-name="barcode-outline" data-tags="barcode-outline" d="M192 192h-64v512h64v-512zM384 704h-128v-448h128v448zM512 704h-64v-448h64v448zM640 704h-64v-448h64v448zM768 704h-64v-448h64v448zM896 704h-64v-512h64v512zM1024 768v-640c0-35.4-28.6-64-64-64h-896c-35.4 0-64 28.6-64 64v640c0 35.4 28.6 64 64 64h896c35.4 0 64-28.6 64-64zM960 768h-896v-640h896v640z" />
<glyph unicode="&#xe151;" glyph-name="barcode" data-tags="barcode" d="M960 832h-896c-35.4 0-64-28.6-64-64v-640c0-35.4 28.6-64 64-64h896c35.4 0 64 28.6 64 64v640c0 35.4-28.6 64-64 64zM192 192h-64v512h64v-512zM384 256h-128v448h128v-448zM512 256h-64v448h64v-448zM640 256h-64v448h64v-448zM768 256h-64v448h64v-448zM896 192h-64v512h64v-512z" />
<glyph unicode="&#xe152;" glyph-name="barcode-scanner" data-tags="barcode-scanner" d="M64 768h-64v192h192v-64h-128v-128zM64 192h-64v-192h192v64h-128v128zM832 960v-64h128v-128h64v192h-192zM960 64h-128v-64h192v192h-64v-128zM576 128h64v256h-64v-256zM640 832h-64v-256h64v256zM512 832h-64v-256h64v256zM256 128h128v256h-128v-256zM128 128h64v256h-64v-256zM384 832h-128v-256h128v256zM448 128h64v256h-64v-256zM128 832v-256h64v256h-64zM896 832h-64v-256h64v256zM896 128v256h-64v-256h64zM704 128h64v256h-64v-256zM768 832h-64v-256h64v256zM960 512h-896v-64h896v64z" />
<glyph unicode="&#xe153;" glyph-name="qr-code-outline" data-tags="qr-code-outline" d="M384 512v-64h-64v64h64zM256 384h64v64h-64v-64zM192 512v-64h64v64h-64zM128 384h64v64h-64v-64zM384 384h64v64h-64v-64zM512 512h-64v-64h64v64zM576 576h-64v-64h64v64zM448 640v-64h64v64h-64zM576 704h-64v-64h64v64zM448 768v-64h64v64h-64zM576 832h-64v-64h64v64zM640 448v64h-64v-64h64zM448 384v-64h64v64h-64zM576 448h-64v-64h64v64zM576 320h-64v-64h64v64zM448 256v-64h64v64h-64zM512 192v-64h64v64h-64zM448 64h64v64h-64v-64zM576 256v-64h64v64h-64zM640 320v64h-64v-64h64zM704 384v64h-64v-64h64zM768 512h-64v-64h64v64zM832 384v64h-64v-64h64zM896 512h-64v-64h64v64zM768 320v64h-64v-64h64zM704 256v64h-64v-64h64zM704 192h64v64h-64v-64zM768 256h64v64h-64v-64zM896 320v64h-64v-64h64zM640 192v-64h64v64h-64zM576 64h64v64h-64v-64zM704 64h64v64h-64v-64zM768 128h64v64h-64v-64zM896 192v64h-64v-64h64zM896 64v64h-64v-64h64zM1024 960v-1024h-1024v1024h1024zM960 896h-896v-896h896v896zM896 576h-256v256h256v-256zM832 640l-1 128h-127v-128h128zM384 576h-256v256h256v-256zM320 640l-1 128h-127v-128h128zM384 64h-256v256h256v-256zM320 128l-1 128h-127v-128h128z" />
<glyph unicode="&#xe154;" glyph-name="qr-code" data-tags="qr-code" d="M640 960v-384h384v384h-384zM960 640h-256v256h256v-256zM895 704h-128v128h128v-128zM0 960v-384h384v384h-384zM320 640h-256v256h256v-256zM255 704h-128v128h128v-128zM0 320v-384h384v384h-384zM320 0h-256v256h256v-256zM255 64h-128v128h128v-128zM320 512h64v-64h-64v64zM320 384h-64v64h64v-64zM192 512h64v-64h-64v64zM128 448h-64v64h64v-64zM192 384h-64v64h64v-64zM448 384h-64v64h64v-64zM512 448h-64v64h64v-64zM512 576h64v-64h-64v64zM512 576h-64v64h64v-64zM512 704h64v-64h-64v64zM512 704h-64v64h64v-64zM512 832h64v-64h-64v64zM512 832h-64v64h64v-64zM640 448h-64v64h64v-64zM448 384h64v-64h-64v64zM576 384h-64v64h64v-64zM576 256h-64v64h64v-64zM512 192h-64v64h64v-64zM512 192h64v-64h-64v64zM512 64h-64v64h64v-64zM640 192h-64v64h64v-64zM640 320h-64v64h64v-64zM640 448h64v-64h-64v64zM768 448h-64v64h64v-64zM832 384h-64v64h64v-64zM896 448h-64v64h64v-64zM704 384h64v-64h-64v64zM704 256h-64v64h64v-64zM704 256h64v-64h-64v64zM768 320h64v-64h-64v64zM832 384h64v-64h-64v64zM640 192h64v-64h-64v64zM640 64h-64v64h64v-64zM576 0h-64v64h64v-64zM960 384h-64v64h64v-64zM704 128h64v-64h-64v64zM704 0h-64v64h64v-64zM832 128h-64v64h64v-64zM896 320h64v-64h-64v64zM896 192h-64v64h64v-64zM832 128h64v-64h-64v64zM832 0h-64v64h64v-64zM960 128h-64v64h64v-64zM960 0h-64v64h64v-64zM1024 64h-64v64h64v-64zM1024 192h-64v64h64v-64zM1024 320h-64v64h64v-64zM1024 448h-64v64h64v-64zM512-64h-64v64h64v-64zM640-64h-64v64h64v-64zM704 0h64v-64h-64v64zM832 0h64v-64h-64v64zM1024-64h-64v64h64v-64z" />
<glyph unicode="&#xe155;" glyph-name="qr-code-scanner" data-tags="qr-code-scanner" d="M1024 960v-192h-64v128h-128v64h192zM960 64h-128v-64h192v192h-64v-128zM128 832h256v-256h-256v256zM192 640h128v128h-128v-128zM64 896h128v64h-192v-192h64v128zM64 448h896v64h-896v-64zM64 192h-64v-192h192v64h-128v128zM576 768h-64v-64h64v64zM448 832v-64h64v64h-64zM896 576h-256v256h256v-256zM832 768h-128v-128h128v128zM576 576v64h-64v-64h64zM512 704h-64v-64h64v64zM128 384h256v-256h-256v256zM192 192h128v128h-128v-128zM576 320h-64v-64h64v64zM448 384v-64h64v64h-64zM512 128h64v64h-64v-64zM448 256v-64h64v64h-64zM640 384h-64v-64h64v64zM576 256v-64h64v64h-64zM704 256v64h-64v-64h64zM640 128h64v64h-64v-64zM768 384h-64v-64h64v64zM704 256v-64h64v64h-64zM832 256v64h-64v-64h64zM832 128v64h-64v-64h64zM896 384h-64v-64h64v64zM896 192v64h-64v-64h64z" />
<glyph unicode="&#xe156;" glyph-name="barcode-qr-code-scanner" data-tags="barcode-qr-code-scanner" d="M512 384h64v-256h-64v256zM640 128h128v256h-128v-256zM896 128v256h-64v-256h64zM64 896h128v64h-192v-192h64v128zM64 192h-64v-192h192v64h-128v128zM832 960v-64h128v-128h64v192h-192zM960 64h-128v-64h192v192h-64v-128zM960 512h-896v-64h896v64zM576 832h-64v-256h64v256zM768 832h-128v-256h128v256zM896 832h-64v-256h64v256zM128 832h192v-192h-192v192zM192 704h64v64h-64v-64zM448 640h-64v-64h64v64zM448 832h-64v-128h64v128zM128 320h192v-192h-192v192zM192 192h64v64h-64v-64zM384 192v-64h64v128h-64v-64zM384 320h64v64h-64v-64z" />
<glyph unicode="&#xe157;" glyph-name="signature" data-tags="signature" d="M64 64h896v-64h-896v64zM896 896h-320v-128h320v128zM704 214.2l-192 297.8 64 192h320l64-192-192-297.8v-86.2h-64v86.2zM704 332.4v115.6h64v-115.6l121.6 188.6-39.8 119h-227.6l-39.8-119.2 121.6-188.4zM157.6 205.4c17.4 20.6 47.8 51.2 74.4 34.6 29.8-18.6 50.2-84.2 113.8-87.6 54.4 1.2 37.8 69.2 73.4 66.4 33.2 0 39-95.6 93-95.8 51.4-0.2 74.8 29 74.6 56 0.2 58-125 175.4-170.8 196-42.8 19.2-68 4.6-79.4-12-10.6-15.8 18.6-69-27.4-82.4-34.6-3-58.4 66.4-124.2 66.4s-31-95.2-121-91c26.2-12 65.6-84 93.6-50.6z" />
<glyph unicode="&#xe158;" glyph-name="hand" data-tags="hand" d="M888.2 697.2c-31.6 15.8-70 2.8-85.8-28.8 0 0 0 0 0 0-16.4-42.6-46.6-160-51.6-175.4-4.2-13-10-24-22.8-19.4-9.4 3.4-7 14.4-4.8 25.2l5.4 34 36.2 225c5.6 34.8-18.2 67.8-53 73.4s-67.8-18.2-73.4-53c0 0 0 0 0 0l-30.4-214.2c0 0-4.2-28.2-6-37.4-2-10.4-2.8-24.6-15.4-23.8-10 0.6-10.6 7.6-10.6 14.6v313.2c0 0.4 0 0.8 0 1.2 0 35.2-28.4 63.8-63.6 64v0 0c0 0-0.2 0-0.2 0-35.4 0-64-28.6-64-64v0c0 0 0 0 0 0s0 0 0 0 0 0 0 0c0-2.2 1.8-282.8 1.2-301-0.4-11-1.4-19-13.6-20.8-15.6-2.2-17.4 16.2-17.4 16.2l-6.2 42-31.8 210v0.4c0 0 0 0 0 0-5.2 35-37.8 59-72.8 53.8s-59-37.8-53.8-72.8c0-0.2 0-0.4 0.2-0.6v-0.2l49.6-331 4.8-31.8c1-6.4-1.4-13.2-6.6-17.2 0 0-0.2-0.2-0.2-0.2-8.2-6.2-20-5-27 2.8l-24.4 26.6-74.8 82c0 0-0.2 0.2-0.2 0.2-23.8 26.2-64.2 28-90.4 4.2s-28-64.2-4.2-90.4v0l111.4-122.2c0 0 68.2-98.2 125-177s144.6-104.8 259-104.8 227.8 43.6 253.6 191c27.4 157.2 13 216.2 47.4 301 21.8 53.8 29.2 87 40 119.4 11 33.6 2.8 70-28.8 85.8z" />
<glyph unicode="&#xe159;" glyph-name="cursor" data-tags="cursor" d="M768 320l-512 576v-768l148.2 120.4 87.6-248.4 167 59-87.8 248.8z" />
<glyph unicode="&#xe15a;" glyph-name="stick" data-tags="stick" d="M384 768c0 35.346-28.654 64-64 64v0h-128c-35.346 0-64-28.654-64-64v0-64h256zM640 448c0-70.692-57.308-128-128-128s-128 57.308-128 128v0 192h-256v-192c0-212.077 171.923-384 384-384s384 171.923 384 384v0 192h-256zM832 832h-128c-35.346 0-64-28.654-64-64v0-64h256v64c0 35.346-28.654 64-64 64v0z" />
<glyph unicode="&#xe15b;" glyph-name="unstick" data-tags="unstick" d="M581.14 697.24c11.502 11.523 18.615 27.431 18.615 45s-7.113 33.477-18.616 45.001l-89.999 89.999c-11.517 11.516-27.426 18.639-45 18.639s-33.483-7.123-45-18.639v0l-45.14-44.92 180.12-180zM536.12 292c-23.048-23.048-54.889-37.304-90.060-37.304-70.341 0-127.364 57.023-127.364 127.364 0 35.171 14.256 67.012 37.304 90.060l135.080 135.080-180 180.1-135.080-135.080c-69.149-69.136-111.919-164.653-111.919-270.16 0-210.989 171.040-382.029 382.029-382.029 105.482 0 200.979 42.75 270.111 111.869l135.079 135.079-180 180.1zM941.34 427.080l-90 90c-11.523 11.502-27.431 18.615-45 18.615s-33.477-7.113-45.001-18.616l-45.019-45.019 180-180.060 45.020 45.040c11.528 11.519 18.659 27.436 18.659 45.020s-7.131 33.501-18.659 45.020v0z" />
<glyph unicode="&#xe15c;" glyph-name="set-column-position" data-tags="set-column-position" d="M896 896h-768c-35.346 0-64-28.654-64-64v0-768c0-35.346 28.654-64 64-64v0h768c35.346 0 64 28.654 64 64v0 768c0 35.346-28.654 64-64 64v0zM384 128h-192v640h192zM832 128h-384v64h384zM832 256h-384v128h384zM832 448h-384v128h384zM832 640h-384v128h384z" />
<glyph unicode="&#xe200;" glyph-name="play" data-tags="play" d="M0-64v1024l1024-512-1024-512z" />
<glyph unicode="&#xe201;" glyph-name="pause" data-tags="pause" d="M640 960h320v-1024h-320v1024zM64-64h320v1024h-320v-1024z" />
<glyph unicode="&#xe202;" glyph-name="stop" data-tags="stop" d="M1024-64h-1024v1024h1024v-1024z" />
<glyph unicode="&#xe203;" glyph-name="rewind" data-tags="rewind" d="M512 448l512 320v-640l-512 320zM512 128v640l-512-320 512-320z" />
<glyph unicode="&#xe204;" glyph-name="forward" data-tags="forward" d="M0 128v640l512-320-512-320zM1024 448l-512 320v-640l512 320z" />
<glyph unicode="&#xe205;" glyph-name="volume-down" data-tags="volume, down" d="M0 256h192l256-256v896l-256-256h-192v-384zM576 200v496c110.4-28.4 192-128.6 192-248s-81.6-219.6-192-248z" />
<glyph unicode="&#xe206;" glyph-name="volume-up" data-tags="volume, up" d="M0 256h192l256-256v896l-256-256h-192v-384zM576 200v496c110.4-28.4 192-128.6 192-248s-81.6-219.6-192-248zM576 960v-89.6c90.4 0 176.6-41.6 242.4-116.8 70.8-80.8 109.6-189.2 109.6-305.6s-38.8-224.8-109.6-305.6c-66-75.4-152-116.8-242.4-116.8v-89.6c247.4 0 448 229.2 448 512s-200.6 512-448 512z" />
<glyph unicode="&#xe207;" glyph-name="volume-off" data-tags="volume, off" d="M192 640l256 256v-896l-256 256h-192v384h192zM1024 581.4l-90.6 90.6-133.4-133.4-133.6 133.4-90.4-90.6 133.4-133.4-133.4-133.4 90.6-90.6 133.4 133.4 133.4-133.4 90.6 90.6-133.6 133.4 133.6 133.4z" />
<glyph unicode="&#xe208;" glyph-name="hd" data-tags="hd" d="M960 832h-896c-35.2 0-64-28.8-64-64v-640c0-35.2 28.8-64 64-64h896c35.2 0 64 28.8 64 64v640c0 35.2-28.8 64-64 64zM512 192h-128v192h-128v-192h-128v512h128v-192h128v192h128v-512zM932.6 329.8c-10.2-32.4-23.6-58.8-39.6-78.2-16.4-19.6-36.4-34.8-59.6-44.8-23-9.8-52.6-14.8-87.8-14.8h-169.6v512h165.2c40.6 0 70.8-4.4 92.2-13.6s41.2-24.4 59-45.6c17.4-21 31.4-48.2 41.2-81.2 9.6-32.4 14.6-73 14.6-120.6-0.2-43-5.4-81.2-15.6-113.2zM824.2 518.2c5.2-17 7.8-41 7.8-71.2 0-29-2.6-52.6-7.8-70.2-5-16.8-11-28.8-17.8-36-6.6-7-15-12-25.6-15.4-7.6-2.4-23.6-5.4-56.6-5.4h-52.2v256h25.8c42.8 0 61.2-1.8 69-3.4 13.8-2.8 25.2-8.2 35-16.8 9.8-9 17.4-21.6 22.4-37.6z" />
<glyph unicode="&#xe209;" glyph-name="subtitles" data-tags="subtitles" d="M960 832h-896c0 0-64 0-64-64v-640c0-64 64-64 64-64h896c64 0 64 64 64 64v640c0 0 0 64-64 64zM480 550.8c-12.2 8.2-27 14.8-43.8 19.4-17 4.6-34.2 7-51.6 7-36 0-64.4-11.6-85.2-34.8s-31.2-54.8-31.2-94.6c0-39.6 10.4-70.8 31.2-93.8s48.6-34.4 83.4-34.4c32.2 0 64.6 9.2 97.2 27.6v-133.2c-36.4-14.8-78.4-22-126.2-22-46.8 0-87.2 10-121.2 30.2s-59.8 48.8-77.8 86c-18 37.2-26.8 80-26.8 128.6 0 52.2 10 98.8 30 139.4 20 40.8 48.4 72.2 85 94.4s78.8 33.4 126.4 33.4c38 0 74.8-5.2 110.4-15.6v-137.6zM896 550.8c-12.2 8.2-27 14.8-43.8 19.4-17 4.6-34.2 7-51.6 7-36 0-64.4-11.6-85.2-34.8s-31.2-54.8-31.2-94.6c0-39.6 10.4-70.8 31.2-93.8s48.6-34.4 83.4-34.4c32.2 0 64.6 9.2 97.2 27.6v-133.2c-36.4-14.8-78.4-22-126.2-22-46.8 0-87.2 10-121.2 30.2s-59.8 48.8-77.8 86c-18 37.2-26.8 80-26.8 128.6 0 52.2 10 98.8 30 139.4 20 40.8 48.4 72.2 85 94.4s78.8 33.4 126.4 33.4c38 0 74.8-5.2 110.4-15.6v-137.6z" />
<glyph unicode="&#xe20a;" glyph-name="playlist" data-tags="playlist" d="M0 448h640v-128h-640v128zM1024 832h-1024v128h1024v-128zM768 702.4v-536c-26.8 16-60 25.6-96 25.6-88.4 0-160-57.4-160-128s71.6-128 160-128c88.4 0 160 57.4 160 128v510.4h192v129.6l-256-1.6zM0 704v-128h640v128h-640z" />
<glyph unicode="&#xe20b;" glyph-name="audio" data-tags="audio" d="M320 620.4v128M320 748.4v-518c-26.8 16-60 25.6-96 25.6-88.4 0-160-57.4-160-128s71.6-128 160-128c88.4 0 160 57.4 160 128v507l512 118.2v-330.8c-26.8 16-60 25.6-96 25.6-88.4 0-160-57.4-160-128s71.6-128 160-128c88.4 0 160 57.4 160 128v576l-640-147.6z" />
<glyph unicode="&#xe20c;" glyph-name="play-sm" data-tags="play, sm" d="M192 128v640l640-320-640-320z" />
<glyph unicode="&#xe20d;" glyph-name="pause-sm" data-tags="pause, sm" d="M576 768h192v-640h-192v640zM192 128h192v640h-192v-640z" />
<glyph unicode="&#xe20e;" glyph-name="stop-sm" data-tags="stop, sm" d="M832 128h-640v640h640v-640z" />
<glyph unicode="&#xe300;" glyph-name="heart-outline" data-tags="heart, outline" d="M894.4 766.4c-87.4 87.4-229.4 87.4-316.8 0l-65.6-65.6-65.6 65.6c-87.4 87.4-229.4 87.4-316.8 0s-87.4-232.6 0-320l382.4-382.4 382.4 382.4c87.4 87.4 87.4 232.6 0 320zM849.2 491.6l-337.2-337-337.2 337c-30.2 30.2-46.8 71-46.8 114.8s16.6 84.6 46.8 114.8c30.2 30.2 70.4 46.8 113.2 46.8s83-16.6 113.2-46.8l110.8-110.8 110.8 110.8c30.2 30.2 70.4 46.8 113.2 46.8s83-16.6 113.2-46.8c30.2-30.2 46.8-71 46.8-114.8s-16.6-84.6-46.8-114.8z" />
<glyph unicode="&#xe301;" glyph-name="heart" data-tags="heart" d="M894.4 446.4l-382.4-382.4-382.4 382.4c-87.4 87.4-87.4 232.6 0 320s229.4 87.4 316.8 0l65.6-65.6 65.6 65.6c87.4 87.4 229.4 87.4 316.8 0s87.4-232.6 0-320z" />
<glyph unicode="&#xe302;" glyph-name="star-outline" data-tags="star, outline" d="M960 555.2l-321.8 28.8-126.2 312-126.2-312-321.8-28.8 244-223.4-73.6-331.8 277.6 177 277.6-177-73.6 331.8 244 223.4zM512 252.8l-181.6-115.8 48 217-164.2 150.4 216.2 19.4 81.6 201.6 81.6-201.6 216.2-19.4-164.2-150.4 48.2-217-181.8 115.8z" />
<glyph unicode="&#xe303;" glyph-name="star" data-tags="star" d="M512 177l-277.6-177 73.6 331.8-244 223.4 321.8 28.8 126.2 312 126.2-312 321.8-28.8-244-223.4 73.6-331.8-277.6 177z" />
<glyph unicode="&#xe304;" glyph-name="checkbox" data-tags="checkbox" d="M128 832v-768h768v768h-768zM832 128h-640v640h640v-640z" />
<glyph unicode="&#xe305;" glyph-name="checkbox-checked" data-tags="checkbox, checked" d="M128 832v-768h768v768h-768zM832 128h-640v640h640v-640zM677.4 666.6l90.6-90.6-320-320-192 192 90.6 90.6 101.4-101.4 229.4 229.4z" />
<glyph unicode="&#xe306;" glyph-name="tri-state-indeterminate" data-tags="tri, state, indeterminate" d="M256 704h512v-512h-512v512zM128 832v-768h768v768h-768zM832 128h-640v640h640v-640z" />
<glyph unicode="&#xe307;" glyph-name="tri-state-null" data-tags="tri, state, null" d="M384 832h256v-64h-256v64zM832 832h-128v-64h128v-128h64v192h-64zM832 320h64v256h-64v-256zM832 128h-128v-64h192v192h-64v-128zM384 64h256v64h-256v-64zM192 256h-64v-192h192v64h-128v128zM192 576h-64v-256h64v256zM128 832v-192h64v128h128v64h-192z" />
<glyph unicode="&#xe308;" glyph-name="circle" data-tags="circle" d="M768 448c0-141.4-114.6-256-256-256s-256 114.6-256 256c0 141.4 114.6 256 256 256s256-114.6 256-256z" />
<glyph unicode="&#xe309;" glyph-name="radiobutton" data-tags="radiobutton" d="M512 832c-212 0-384-172-384-384s172-384 384-384c212 0 384 172 384 384s-172 384-384 384zM512 128c-176.8 0-320 143.2-320 320s143.2 320 320 320c176.8 0 320-143.2 320-320s-143.2-320-320-320z" />
<glyph unicode="&#xe30a;" glyph-name="radiobutton-checked" data-tags="radiobutton, checked" d="M703.2 449.4c0-106.4-86.2-192.8-192.8-192.8s-192.8 86.2-192.8 192.8c0 106.6 86.2 192.8 192.8 192.8s192.8-86.4 192.8-192.8zM512 832c-212 0-384-172-384-384s172-384 384-384c212 0 384 172 384 384s-172 384-384 384zM512 128c-176.8 0-320 143.2-320 320s143.2 320 320 320c176.8 0 320-143.2 320-320s-143.2-320-320-320z" />
<glyph unicode="&#xe400;" glyph-name="notification" data-tags="notification" d="M384 128h256c0-70.6-57.4-128-128-128s-128 57.4-128 128zM704 640c0 84-53.8 155.2-128.8 181.4 0.6 3.4 0.8 7 0.8 10.6 0 35.4-28.6 64-64 64s-64-28.6-64-64c0-3.6 0.4-7.2 0.8-10.6-75-26.2-128.8-97.4-128.8-181.4 0-176.8-86-320-192-320v-128h768v128c-106 0-192 143.2-192 320z" />
<glyph unicode="&#xe401;" glyph-name="information" data-tags="information" d="M576 256h64v-64h-256v64h64v192h-64v64h192v-256zM576 704h-128v-128h128v128zM960 448c0-247.4-200.6-448-448-448s-448 200.6-448 448c0 247.4 200.6 448 448 448s448-200.6 448-448zM896 448c0 212-172 384-384 384s-384-172-384-384c0-212 172-384 384-384s384 172 384 384z" />
<glyph unicode="&#xe402;" glyph-name="question" data-tags="question" d="M704 576c0-90.4-46.8-131.8-81.2-162-30.2-26.6-46.8-41.4-46.8-94h-128c0 110.4 54.2 158.4 90.2 190 27.6 24.2 37.8 33.4 37.8 66 0 35.2-28.8 64-64 64s-64-28.8-64-64h-128c0 106 86 192 192 192s192-86 192-192zM448 128h128v128h-128v-128zM960 448c0-247.4-200.6-448-448-448s-448 200.6-448 448c0 247.4 200.6 448 448 448s448-200.6 448-448zM896 448c0 212-172 384-384 384s-384-172-384-384c0-212 172-384 384-384s384 172 384 384z" />
<glyph unicode="&#xe403;" glyph-name="warning" data-tags="warning" d="M448 704h128v-320h-128v320zM448 192h128v128h-128v-128zM960 448c0-247.4-200.6-448-448-448s-448 200.6-448 448c0 247.4 200.6 448 448 448s448-200.6 448-448zM896 448c0 212-172 384-384 384s-384-172-384-384c0-212 172-384 384-384s384 172 384 384z" />
<glyph unicode="&#xe500;" glyph-name="photo-camera" data-tags="photo, camera" d="M896 704h-128l-128 128h-256l-128-128h-128c-35.2 0-64-28.8-64-64v-576c0-35.2 28.8-64 64-64h768c35.2 0 64 28.8 64 64v576c0 35.2-28.8 64-64 64zM512 128c-123.8 0-224 100.2-224 224s100.2 224 224 224c123.8 0 224-100.2 224-224s-100.2-224-224-224zM640 352c0-70.6-57.4-128-128-128s-128 57.4-128 128c0 70.6 57.4 128 128 128s128-57.4 128-128z" />
<glyph unicode="&#xe501;" glyph-name="image" data-tags="image" d="M608 640c53 0 96-43 96-96s-43-96-96-96c-53 0-96 43-96 96s43 96 96 96zM896 832h-768c-35.2 0-64-28.8-64-64v-640c0-35.2 28.8-64 64-64h768c35.2 0 64 28.8 64 64v640c0 35.2-28.8 64-64 64zM896 288l-128 128-160-160-256 256-224-224v479.8c0 0 0 0 0.2 0.2h767.8c0 0 0 0 0.2-0.2l-0.2-479.8z" />
<glyph unicode="&#xe502;" glyph-name="image-export" data-tags="image, export" d="M768 192v160l-64 64-160-160-256 256-224-224v480c0 0 0 0 0.2 0.2h767.8c0 0 0 0 0.2-0.2l-0.2-448h64v448.2c0 35.2-28.8 64-64 64h-768c-35.2 0-64-28.8-64-64v-640.2c0-35.2 28.8-64 64-64h512v128h192zM544 640c-53 0-96-43-96-96s43-96 96-96c53 0 96 43 96 96s-43 96-96 96zM640 64h192v-128l192 160-192 160v-128h-192v-64z" />
<glyph unicode="&#xe503;" glyph-name="zoom-actual-size" data-tags="zoom, actual, size" d="M0 896v-256l256 256h-256zM768 896l256-256v256h-256zM246.8 704c-30.2 0-54.8-24.6-54.8-54.8v-402.4c0-30.2 24.6-54.8 54.8-54.8h530.4c30.2 0 54.8 24.6 54.8 54.8v402.4c0 30.2-24.6 54.8-54.8 54.8h-530.4zM768 640v-320l-96 128-96-128-160 192-160-192v320h512zM576 576c-35.4 0-64-28.6-64-64s28.6-64 64-64c35.4 0 64 28.6 64 64s-28.6 64-64 64zM0 256v-256h256l-256 256zM1024 256l-256-256h256v256z" />
<glyph unicode="&#xe504;" glyph-name="zoom-best-fit" data-tags="zoom, best, fit" d="M777.2 704h-530.4c-30.2 0-54.8-24.6-54.8-54.8v-402.4c0-30.2 24.6-54.8 54.8-54.8h530.4c30.2 0 54.8 24.6 54.8 54.8v402.4c0 30.2-24.6 54.8-54.8 54.8zM768 320l-96 128-96-128-160 192-160-192v320h512v-320zM0 640l192-192-192-192v384zM320 0l192 192 192-192h-384zM704 896l-192-192-192 192h384zM1024 640v-384l-192 192 192 192zM512 512c0 35.4 28.6 64 64 64s64-28.6 64-64c0-35.4-28.6-64-64-64s-64 28.6-64 64z" />
<glyph unicode="&#xe505;" glyph-name="image-resize" data-tags="image, resize" d="M854.6 150.6l-150.6 150.6v594.8h-640v-640h594.8l150.6-150.6-105.4-105.4h256v256l-105.4-105.4zM128 320v512h512v-466.8l-233.4 233.4 105.4 105.4h-256v-256l105.4 105.4 233.4-233.4h-466.8z" />
<glyph unicode="&#xe506;" glyph-name="crop" data-tags="crop" d="M0 768h128v-128h-128v128zM896 256v-128h128v128h-128zM832 704c0 35.2-28.8 64-64 64h-384v-128h320v-640h128v704zM192 192c0-35.2 28.8-64 64-64h384v128h-320v640h-128v-704z" />
<glyph unicode="&#xe507;" glyph-name="mirror" data-tags="mirror" d="M384 832h-320v-768h320v768zM320 128.2c0-0.2 0-0.2 0 0l-191.8-0.2c0 0 0 0-0.2 0.2v639.6c0 0 0 0 0.2 0.2h191.8c0 0 0 0 0.2-0.2v-639.6zM512 0h-64v896h64v-896zM576 832h320v-768h-320v768z" />
<glyph unicode="&#xe508;" glyph-name="flip-horizontal" data-tags="flip, horizontal" d="M896 64h-320v768l320-768zM128 64l320 768v-768h-320zM384 512l-160-384h160v384z" />
<glyph unicode="&#xe509;" glyph-name="flip-vertical" data-tags="flip, vertical" d="M128 384h768l-768-320v320zM128 832v-320h768l-768 320zM192 576v160l384-160h-384z" />
<glyph unicode="&#xe50a;" glyph-name="rotate" data-tags="rotate" d="M512 64c16.4 0 32.4 1.2 48 3.6v-64.6c-15.8-2-31.8-3-48-3s-32.2 1-48 3v64.6c15.6-2.4 31.6-3.6 48-3.6zM280 78c25.4-19.4 53.2-35.6 83-48l32.4 56c-30.2 11.8-58.2 28.2-83 48.2l-32.4-56.2zM158 235c12.6-29.8 28.8-57.6 48-83l56 32.4c-20 25-36.2 52.8-48.2 83l-55.8-32.4zM512 704v-128l256 160-256 160v-128c-16.2 0-32.2-1-48-3-35.4-4.4-69.2-13.6-101-27-29.8-12.6-57.6-28.8-83-48-28-21.2-52.8-46-74-74-19.4-25.4-35.6-53.2-48-83-13.4-31.8-22.6-65.6-27-101-2-15.8-3-31.8-3-48s1-32.2 3-48h64.6c-2.4 15.6-3.6 31.6-3.6 48s1.2 32.4 3.6 48c3.6 23.8 9.8 46.8 18.4 68.6 11.8 30.2 28.2 58.2 48.2 83 14.8 18.6 31.6 35.4 50.2 50.2 25 20 52.8 36.2 83 48.2 21.8 8.6 44.8 14.8 68.6 18.4 15.6 2.4 31.6 3.6 48 3.6zM893 432h-64.6c2.4-15.6 3.6-31.6 3.6-48s-1.2-32.4-3.6-48h64.6c2 15.8 3 31.8 3 48s-1 32.2-3 48zM761.8 184.4l56-32.4c19.4 25.4 35.6 53.2 48 83l-56 32.4c-11.6-30.2-28-58.2-48-83zM628.6 86l32.4-56c29.8 12.6 57.6 28.8 83 48l-32.4 56c-24.8-19.8-52.8-36.2-83-48z" />
<glyph unicode="&#xe50b;" glyph-name="rotate-right" data-tags="rotate, right" d="M640 64v768l320-768h-320zM576 64h-512l512 320v-320zM512 268.6l-224.8-140.6h224.8v140.6zM128 640v-256h64v192h192v-128l192 160-192 160v-128h-256z" />
<glyph unicode="&#xe50c;" glyph-name="rotate-left" data-tags="rotate, left" d="M64 64l320 768v-768h-320zM448 384l512-320h-512v320zM512 128h224.8l-224.8 140.6v-140.6zM640 640v128l-192-160 192-160v128h192v-192h64v256h-256z" />
<glyph unicode="&#xe50d;" glyph-name="brush" data-tags="brush" d="M64 0c0 0 92.8 11.2 192 32 44.6 9.4 93.8 28 141.4 75.4 113.8 113.8 0.4 225.8 0.4 225.8s-113.4 113.8-226.6 0.4c-46.8-46.8-40.2-114.2-39.4-179.6 1.6-119.4-67.8-154-67.8-154zM941.4 832l-45.4 45.4c-24.8 24.8-65.6 24.8-90.6 0l-396.8-397c23-11.6 41.6-24.4 55.4-35.2 10.6-8.4 18.4-15.4 22.6-19.6v0c0.6-0.6 1.2-1.2 1.6-1.6s1-1 1.6-1.6v0c4.2-4.2 11.2-11.8 19.4-22.2 10.8-13.6 23.6-32.4 35.2-55.2l396.8 396.8c25 24.6 25 65.4 0.2 90.2zM896 786.8l-341.2-341.4c-9.6 11.6-17.2 19.8-21.2 23.8-4.6 4.6-12.6 12.2-24 21.4l341.4 341.4 45-45.2z" />
<glyph unicode="&#xe50e;" glyph-name="palette" data-tags="palette" d="M412 446.8l320 320c-4.4 11.4-9.6 22.2-15.8 32.6-48.4 81.6-120.2 132-215.6 151.8-4.6 1-9.4 2-14.2 2.8-102.4 17.6-200.2-3.6-293.4-63.2-94.4-60.2-154.6-145.2-180.8-254.8-26-109.6-10.4-212.8 46.8-309.2 28.4-47.6 62.6-86.4 102.8-116.8 7.6 50.4 26.8 104 72.8 150 62.6 62.8 128 82.6 177.4 86.8zM576 832c35.4 0 64-28.6 64-64s-28.6-64-64-64c-35.4 0-64 28.6-64 64s28.6 64 64 64zM384 896c35.4 0 64-28.6 64-64s-28.6-64-64-64c-35.4 0-64 28.6-64 64s28.6 64 64 64zM128 448c-35.4 0-64 28.6-64 64s28.6 64 64 64c35.4 0 64-28.6 64-64s-28.6-64-64-64zM128 704c0 35.4 28.6 64 64 64s64-28.6 64-64c0-35.4-28.6-64-64-64s-64 28.6-64 64zM1005.4 678.2l-45.4 45.2c-24.8 24.8-65.6 24.8-90.6 0l-307.2-307.2c23-11.6 41.6-24.4 55.4-35.2 10.6-8.4 18.4-15.4 22.6-19.6l22.6-25.4c10.8-13.6 23.6-32.4 35.2-55.2l307 307c25.2 24.8 25.2 65.6 0.4 90.4zM708.6 381.4c-9.6 11.6-17.2 19.8-21.2 23.8-4.6 4.6-12.6 12.2-24 21.4l251.6 251.4 45-45-251.4-251.6zM551.2 43.4c-47.6-47.4-96.8-66-141.4-75.4-99.2-20.8-192-32-192-32s69.4 34.6 67.8 154c-0.8 65.4-7.4 132.8 39.4 179.6 113.2 113.4 226.6-0.4 226.6-0.4s113.4-112-0.4-225.8z" />
<glyph unicode="&#xe50f;" glyph-name="paint" data-tags="paint" d="M512 192v-64c-106 0-192 86-192 192h64c0-70.6 57.4-128 128-128zM832 336c0-185.6-143.2-336-320-336s-320 150.4-320 336c0 261.4 320 560 320 560s320-298.6 320-560zM768 336c0 92.6-50.6 209.4-146 338-40 54-80.6 99.6-110 130.8-29.4-31.2-69.8-77-110-130.8-95.6-128.6-146-245.6-146-338 0-150 114.8-272 256-272s256 122 256 272z" />
<glyph unicode="&#xe510;" glyph-name="line" data-tags="line" d="M960 850.8l-850.8-850.8-45.2 45.2 850.8 850.8 45.2-45.2z" />
<glyph unicode="&#xe511;" glyph-name="brightness-contrast" data-tags="brightness, contrast" d="M331 267c24.8-25 24.8-65.8 0-90.6l-45.2-45.2c-25-24.8-65.6-24.8-90.6 0-24.8 25-24.8 65.8 0 90.6l45.2 45.2c25 24.8 65.8 24.8 90.6 0zM512 704c35.2 0 64 28.8 64 64v64c0 35.2-28.8 64-64 64s-64-28.8-64-64v-64c0-35.2 28.8-64 64-64zM783.6 629l45.2 45.2c24.8 24.8 24.8 65.6 0 90.6-24.8 24.8-65.6 24.8-90.6 0l-45.2-45.2c-24.8-24.8-24.8-65.6 0-90.6 25-24.8 65.6-24.8 90.6 0zM240.4 629c24.8-24.8 65.6-24.8 90.6 0 24.8 24.8 24.8 65.6 0 90.6l-45.2 45.2c-24.8 24.8-65.6 24.8-90.6 0-24.8-25-24.8-65.6 0-90.6l45.2-45.2zM256 448c0 35.2-28.8 64-64 64h-64c-35.2 0-64-28.8-64-64s28.8-64 64-64h64c35.2 0 64 28.8 64 64zM783.6 267c-24.8 24.8-65.6 24.8-90.6 0-24.8-25-24.8-65.6 0-90.6l45.2-45.2c24.8-24.8 65.6-24.8 90.6 0 24.8 24.8 24.8 65.6 0 90.6l-45.2 45.2zM896 512h-64c-35.2 0-64-28.8-64-64s28.8-64 64-64h64c35.2 0 64 28.8 64 64s-28.8 64-64 64zM704 448c0-106-86-192-192-192s-192 86-192 192c0 106 86 192 192 192s192-86 192-192zM640 448c0 70.6-57.4 128-128 128v-256c70.6 0 128 57.4 128 128zM512 192c-35.2 0-64-28.8-64-64v-64c0-35.2 28.8-64 64-64s64 28.8 64 64v64c0 35.2-28.8 64-64 64z" />
<glyph unicode="&#xe512;" glyph-name="saturation" data-tags="saturation" d="M960 768v-64h-389.4c-13.2-37.2-48.8-64-90.6-64s-77.4 26.8-90.6 64h-325.4v64h325.4c13.2 37.2 48.8 64 90.6 64s77.4-26.8 90.6-64h389.4zM736 576c-41.8 0-77.4-26.8-90.6-64h-581.4v-64h581.4c13.2-37.2 48.8-64 90.6-64s77.4 26.8 90.6 64h133.4v64h-133.4c-13.2 37.2-48.8 64-90.6 64zM352 320c-41.8 0-77.4-26.8-90.6-64h-197.4v-64h197.4c13.2-37.2 48.8-64 90.6-64s77.4 26.8 90.6 64h517.4v64h-517.4c-13.2 37.2-48.8 64-90.6 64z" />
<glyph unicode="&#xe513;" glyph-name="invert-colors" data-tags="invert, colors" d="M640 896l-128-96 128-96v64h128v-128h-64l96-128 96 128h-64v192h-192v64zM64 832v-384h384v384h-384zM448 448v-384h384v384h-384zM128 768h256v-256h-256v256z" />
<glyph unicode="&#xe514;" glyph-name="transperancy" data-tags="transperancy" d="M128 832v-704h704v704h-704zM192 768h192v-192h192v192h192v-192h-192v-192h192v-192h-192v192h-192v-192h-192v192h192v192h-192v192z" />
<glyph unicode="&#xe515;" glyph-name="greyscale" data-tags="greyscale" d="M64 832c-35.4 0-64-28.6-64-64v-640c0-35.4 28.6-64 64-64h832c35.4 0 64 28.6 64 64v640c0 35.4-28.6 64-64 64h-832zM64 768h832v-640h-832v640zM160 704c-17.6 0-32-14.4-32-32v-448c0-17.6 14.4-32 32-32s32 14.4 32 32v448c0 17.6-14.4 32-32 32zM288 704c-17.6 0-32-14.4-32-32v-448c0-17.6 14.4-32 32-32s32 14.4 32 32v448c0 17.6-14.4 32-32 32zM416 704c-17.6 0-32-14.4-32-32v-448c0-17.6 14.4-32 32-32s32 14.4 32 32v448c0 17.6-14.4 32-32 32zM544 704c-17.6 0-32-14.4-32-32v-448c0-17.6 14.4-32 32-32s32 14.4 32 32v448c0 17.6-14.4 32-32 32zM672 704c-17.6 0-32-14.4-32-32v-448c0-17.6 14.4-32 32-32s32 14.4 32 32v448c0 17.6-14.4 32-32 32zM800 704c-17.6 0-32-14.4-32-32v-448c0-17.6 14.4-32 32-32s32 14.4 32 32v448c0 17.6-14.4 32-32 32zM800 696c13.2 0 24-10.8 24-24v-448c0-13.2-10.8-24-24-24s-24 10.8-24 24v448c0 13.2 10.8 24 24 24zM672 694c12.2 0 22-9.8 22-22v-448c0-12.2-9.8-22-22-22s-22 9.8-22 22v448c0 12.2 9.8 22 22 22zM544 690c10 0 18-8 18-18v-448c0-10-8-18-18-18s-18 8-18 18v448c0 10 8 18 18 18zM416 688c8.8 0 16-7.2 16-16v-448c0-8.8-7.2-16-16-16s-16 7.2-16 16v448c0 8.8 7.2 16 16 16zM288 680c4.4 0 8-3.6 8-8v-448c0-4.4-3.6-8-8-8s-8 3.6-8 8v448c0 4.4 3.6 8 8 8z" />
<glyph unicode="&#xe516;" glyph-name="blur" data-tags="blur" d="M768 320c0-128-64-256-256-256-128 0-256 96-256 256 0 192 256 256 256 512 0 0 256-258.2 256-512z" />
<glyph unicode="&#xe517;" glyph-name="sharpen" data-tags="sharpen" d="M512 896l-256-896h512l-256 896zM512 663l171.2-599h-342.4l171.2 599z" />
<glyph unicode="&#xe518;" glyph-name="shape" data-tags="shape" d="M960 896h-640v-262.408c-146.062-29.65-256-158.78-256-313.592 0-176.73 143.27-320 320-320 154.812 0 283.944 109.938 313.594 256h262.406v640zM384 64c-141.384 0-256 114.616-256 256 0 119.286 81.586 219.516 192 247.934v0c2.346 0.604 4.708 1.166 7.078 1.704 0.714 0.162 1.434 0.312 2.152 0.468 1.684 0.368 3.374 0.72 5.070 1.054 0.818 0.16 1.638 0.318 2.458 0.47 1.698 0.316 3.404 0.614 5.114 0.896 0.738 0.122 1.472 0.25 2.21 0.368 4.846 0.758 9.738 1.38 14.67 1.864 0.758 0.074 1.518 0.134 2.278 0.202 1.738 0.154 3.48 0.294 5.228 0.414 0.866 0.060 1.73 0.114 2.598 0.166 1.744 0.102 3.494 0.182 5.246 0.25 0.784 0.030 1.564 0.066 2.348 0.090 2.508 0.072 5.024 0.12 7.55 0.12 141.384 0 256-114.616 256-256 0-2.528-0.046-5.042-0.12-7.55-0.024-0.786-0.060-1.564-0.090-2.348-0.066-1.752-0.146-3.502-0.248-5.246-0.050-0.868-0.106-1.732-0.166-2.598-0.12-1.748-0.26-3.488-0.414-5.226-0.068-0.76-0.128-1.522-0.204-2.28-0.482-4.936-1.106-9.828-1.866-14.678-0.114-0.73-0.242-1.456-0.362-2.184-0.286-1.722-0.584-3.44-0.904-5.15-0.15-0.806-0.304-1.616-0.462-2.42-0.34-1.72-0.698-3.436-1.070-5.142-0.15-0.692-0.294-1.384-0.452-2.074-0.542-2.378-1.106-4.75-1.71-7.104v0c-28.416-110.414-128.646-192-247.932-192zM896 320h-192c0 176.73-143.27 320-320 320v192h512v-512z" />
<glyph unicode="&#xe519;" glyph-name="round-corners" data-tags="round, corners" d="M896 320c0-141.384-114.616-256-256-256h-256c-141.384 0-256 114.616-256 256v256c0 141.384 114.616 256 256 256h256c141.384 0 256-114.616 256-256v-256z" />
<glyph unicode="&#xe51a;" glyph-name="front-element" data-tags="front, element" d="M192 704v64h192v64h-256v-256h64v64M640 192h128v512h-512v-512h320M832 320v-192h-192v-64h256v256" />
<glyph unicode="&#xe51b;" glyph-name="back-element" data-tags="back, element" d="M256 576h128v256h-256v-256h128zM192 768h128v-128h-128v128zM576 384h192v320h-320v-192h-192v-320h320v128M832 320h-192v-256h256v256h-64zM832 128h-128v128h128v-128z" />
<glyph unicode="&#xe51c;" glyph-name="forward-element" data-tags="forward, element" d="M896 576v-512h-512v256h-256v512h512v-256h256zM832 512h-192v-192h-192v-192h384v384z" />
<glyph unicode="&#xe51d;" glyph-name="backward-element" data-tags="backward, element" d="M384 576v-512h512v512h-512zM832 128h-384v384h384v-384zM640 832h-512v-512h192v320h320" />
<glyph unicode="&#xe51e;" glyph-name="align-left-element" data-tags="align, left, element" d="M62.8 896.36h64v-896h-64v896zM638.8 768.36h-448v-256h448v256zM894.8 384.36v-256h-704v256h704zM830.8 320.36h-576v-128h576v128z" />
<glyph unicode="&#xe51f;" glyph-name="align-center-element" data-tags="align, center, element" d="M510.8 384.36v128h192v256h-192v128h-64v-128h-192v-256h192v-128h-320v-256h320v-128h64v128h320v256h-320zM766.8 192.36h-576v128h576v-128z" />
<glyph unicode="&#xe520;" glyph-name="align-right-element" data-tags="align, right, element" d="M128.8 128.36h704v256h-704v-256zM192.8 320.36h576v-128h-576v128zM384.8 768.36h448v-256h-448v256zM960.8 896.36v-896h-64v896h64z" />
<glyph unicode="&#xe521;" glyph-name="align-top-element" data-tags="align, top, element" d="M190.8 768.36h256v-448h-256v448zM574.8 768.36h256v-704h-256v704zM638.8 128.36h128v576h-128v-576zM62.8 896.36v-64h896v64h-896z" />
<glyph unicode="&#xe522;" glyph-name="align-middle-element" data-tags="align, middle, element" d="M830.8 512.36v320h-256v-320h-128v192h-256v-192h-128v-64h128v-192h256v192h128v-320h256v320h128v64h-128zM766.8 512.36v-320h-128v576h128v-256z" />
<glyph unicode="&#xe523;" glyph-name="align-bottom-element" data-tags="align, bottom, element" d="M958.8 62.36v-64h-896v64h896zM446.8 574.36h-256v-448h256v448zM830.8 126.36h-256v704h256v-704zM766.8 766.36h-128v-576h128v576z" />
<glyph unicode="&#xe524;" glyph-name="thumbnails-up" data-tags="thumbnails, up" d="M704 896h192v-191.8h-192v191.8zM383.8 896h192v-191.8h-192v191.8zM64 896h192v-191.8h-192v191.8zM64 576h832v-512h-832v512z" />
<glyph unicode="&#xe525;" glyph-name="thumbnails-right" data-tags="thumbnails, right" d="M704 255.8h192v-191.8h-192v191.8zM704 575.4h192v-191.8h-192v191.8zM704 895.6h192v-191.8h-192v191.8zM64 896h512v-832h-512v832z" />
<glyph unicode="&#xe526;" glyph-name="thumbnails-down" data-tags="thumbnails, down" d="M704 255.8h192v-191.8h-192v191.8zM383.8 255.8h192v-191.8h-192v191.8zM64 255.8h192v-191.8h-192v191.8zM64 896h832v-512h-832v512z" />
<glyph unicode="&#xe527;" glyph-name="thumbnails-left" data-tags="thumbnails, left" d="M64 896v-191.8h192v191.8h-192zM384 896v-832h512v832h-512zM64 575.8v-191.8h192v191.8h-192zM64 255.8v-191.8h192v191.8h-192z" />
<glyph unicode="&#xe528;" glyph-name="full-screen" data-tags="full, screen" d="M0 896h320v-128h-192v-192h-128v320zM128 320h-128v-320h320v128h-192v192zM704 896v-128h192v-192h128v320h-320zM896 128h-192v-128h320v320h-128v-192z" />
<glyph unicode="&#xe529;" glyph-name="full-screen-exit" data-tags="full, screen, exit" d="M320 896h-128v-192h-192v-128h320v320zM192 0h128v320h-320v-128h192v-192zM1024 576v128h-192v192h-128v-320h320zM832 192h192v128h-320v-320h128v192z" />
<glyph unicode="&#xe52a;" glyph-name="reset-color" data-tags="reset, color" d="M635.8 98l46.4-46.4c-49.2-32.8-107.6-51.6-170.2-51.6-176.8 0-320 150.4-320 336 0 55.6 14.4 112.8 37.2 168.4l49.6-49.6c-15-42.8-22.8-82.6-22.8-118.8 0-150 114.8-272 256-272 44.8 0 87 12.4 123.8 34zM512 128v64c-70.6 0-128 57.4-128 128h-64c0-106 86-192 192-192zM960 45.2l-45.2-45.2-850.8 850.8 45.2 45.2 217.4-217.4c87.4 126 185.4 217.4 185.4 217.4s320-298.6 320-560c0-48.2-9.8-94.2-27.2-135.6l155.2-155.2zM768 336c0 92.6-50.6 209.4-146 338-40 54-80.6 99.6-110 130.8-29.4-31.2-69.8-77-110-130.8-2.8-3.8-5.4-7.4-8.2-11.2-1.6-2.2-3-4.2-4.6-6.4-1-1.4-2-2.8-3-4.2-2-2.8-4-5.6-6-8.4-0.4-0.6-0.8-1-1.2-1.6-2-3-4.2-6-6.2-9-0.2-0.2-0.2-0.4-0.4-0.6l382.4-382.4c0 0 0 0 0 0 1 3.2 2 6.6 2.8 9.8 0 0.4 0.2 0.8 0.2 1 0.8 3 1.6 5.8 2.2 8.8 0.2 0.6 0.2 1.2 0.4 1.8 0.6 2.8 1.2 5.4 1.8 8.2 0.2 0.8 0.4 1.6 0.4 2.4 0.4 2.6 1 5.2 1.4 7.8 0.2 1 0.4 2 0.4 3 0.4 2.4 0.6 5 1 7.4 0.2 1 0.2 2.2 0.4 3.2 0.2 2.4 0.4 4.8 0.6 7.2 0 1.2 0.2 2.2 0.2 3.4 0.2 2.6 0.4 5 0.4 7.6 0 1 0.2 2 0.2 3.2 0.8 3.8 0.8 7.4 0.8 11z" />
<glyph unicode="&#xe52b;" glyph-name="images" data-tags="images" d="M512 384c0-35.4-28.6-64-64-64s-64 28.6-64 64 28.6 64 64 64 64-28.6 64-64zM704 512v-384c0-35.4-28.6-64-64-64h-512c-35.4 0-64 28.6-64 64v384c0 35.4 28.6 64 64 64h512c35.4 0 64-28.6 64-64zM640 511.8c-0.2 0.2-0.2 0.2 0 0l-511.8 0.2c-0.2-0.2-0.2-0.2-0.2-0.2v-299.8l149.2 140 170.6-160 106.6 100 85.4-80 0.2 299.8zM768 704h-512c-35.4 0-64-28.6-64-64h576v-448c35.4 0 64 28.6 64 64v384c0 35.4-28.6 64-64 64zM896 832h-512c-35.4 0-64-28.6-64-64h576v-448c35.4 0 64 28.6 64 64v384c0 35.4-28.6 64-64 64z" />
<glyph unicode="&#xe52c;" glyph-name="align-to-grid" data-tags="align-to-grid" d="M640 320h-384v384h384zM192 960h-64v-1024h64zM896 960h-64v-1024h64zM1024 832h-1024v-64h1024zM1024 128h-1024v-64h1024z" />
<glyph unicode="&#xe52d;" glyph-name="size-to-grid" data-tags="size-to-grid" d="M768 192h-512v512h512zM192 960h-64v-1024h64zM896 960h-64v-1024h64zM1024 832h-1024v-64h1024zM1024 128h-1024v-64h1024z" />
<glyph unicode="&#xe52e;" glyph-name="make-same-size" data-tags="make-same-size" d="M576 576v-192h-192v192zM480 960l-96-128h64v-128h65.4v128h62.6zM512 128v128h-64v-128h-64l96-128 96 128zM960 480l-128 96v-64h-128v-65.4h128v-62.6zM128 512v64l-128-96 128-96v64h128v64zM256 960h-256v-256h64v192h192zM896 960h-192v-64h192v-192h64v256zM64 64v192h-64v-256h256v64zM896 256v-192h-192v-64h256v256z" />
<glyph unicode="&#xe52f;" glyph-name="make-same-width" data-tags="make-same-width" d="M960 704h-960v192h960zM576 512h-192v-192h192zM960 416l-128 96v-64h-128v-65.4h128v-62.6zM128 448v64l-128-96 128-96v64h128v64zM896 256v-192h-192v-64h256v256zM64 64v192h-64v-256h256v64z" />
<glyph unicode="&#xe530;" glyph-name="make-same-height" data-tags="make-same-height" d="M256 960v-960h-192v960zM448 576v-192h192v192zM544 960l-96-128h64v-128h65.4v128h62.6zM576 128v128h-64v-128h-64l96-128 96 128zM896 960h-192v-64h192v-192h64v256zM896 256v-192h-192v-64h256v256z" />
<glyph unicode="&#xe531;" glyph-name="make-horizontal-spacing-equal" data-tags="make-horizontal-spacing-equal" d="M960 640v-320h-192v128h-192v-320h-192v320h-192v-192h-128v448h128v-192h192v320h192v-320h192v128z" />
<glyph unicode="&#xe532;" glyph-name="increase-horizontal-spacing" data-tags="increase-horizontal-spacing" d="M960 768v-320h-192v128h-192v-320h-192v320h-192v-192h-128v448h128v-192h192v320h192v-320h192v128zM671.46 256l-45.24-45.26 114.74-114.74-114.74-114.74 45.24-45.26 160 160zM128 96l160-160 45.26 45.26-114.76 114.74 114.76 114.74-45.26 45.26z" />
<glyph unicode="&#xe533;" glyph-name="decrease-horizontal-spacing" data-tags="decrease-horizontal-spacing" d="M960 768v-320h-192v128h-192v-320h-192v320h-192v-192h-128v448h128v-192h192v320h192v-320h192v128zM223.26 256l-45.26-45.26 114.74-114.74-114.74-114.74 45.26-45.26 160 160zM576 96l160-160 45.26 45.26-114.76 114.74 114.76 114.74-45.26 45.26z" />
<glyph unicode="&#xe534;" glyph-name="remove-horizontal-spacing" data-tags="remove-horizontal-spacing" d="M959.060 768.86v-320h-192v128h-192v-320h-192v320h-192v-192h-128v448h128v-192h192v320h192v-320h192v128zM895.060 211.6l-45.26 45.26-114.74-114.74-114.74 114.74-45.26-45.26 114.74-114.74-114.74-114.74 45.26-45.26 114.74 114.74 114.74-114.74 45.26 45.26-114.74 114.74zM383.060 211.6l-45.26 45.26-114.74-114.74-114.74 114.74-45.26-45.26 114.74-114.74-114.74-114.74 45.26-45.26 114.74 114.74 114.74-114.74 45.26 45.26-114.74 114.74z" />
<glyph unicode="&#xe535;" glyph-name="make-vertical-spacing-equal" data-tags="make-vertical-spacing-equal" d="M512 320v-192h192v-128h-448v128h192v192h-320v192h320v192h-128v192h320v-192h-128v-192h320v-192z" />
<glyph unicode="&#xe536;" glyph-name="increase-vertical-spacing" data-tags="increase-vertical-spacing" d="M384 320v-192h192v-128h-448v128h192v192h-320v192h320v192h-128v192h320v-192h-128v-192h320v-192zM1024 223.8l-45.26 45.26-114.74-114.74-114.74 114.74-45.26-45.26 160-160zM864 768l-160-160 45.26-45.26 114.74 114.76 114.74-114.76 45.26 45.26z" />
<glyph unicode="&#xe537;" glyph-name="decrease-vertical-spacing" data-tags="decrease-vertical-spacing" d="M382 320v-192h192v-128h-448v128h192v192h-320v192h320v192h-128v192h320v-192h-128v-192h320v-192zM702 109.26l45.26-45.26 114.74 114.74 114.74-114.74 45.26 45.26-160 160zM862 562.74l160 160-45.26 45.26-114.74-114.74-114.74 114.74-45.26-45.26z" />
<glyph unicode="&#xe538;" glyph-name="remove-vertical-spacing" data-tags="remove-vertical-spacing" d="M384 320v-192h192v-128h-448v128h192v192h-320v192h320v192h-128v192h320v-192h-128v-192h320v-192zM1024 274.74l-45.26 45.26-114.74-114.74-114.74 114.74-45.26-45.26 114.74-114.74-114.74-114.74 45.26-45.26 114.74 114.74 114.74-114.74 45.26 45.26-114.74 114.74zM1024 850.74l-45.26 45.26-114.74-114.74-114.74 114.74-45.26-45.26 114.74-114.74-114.74-114.74 45.26-45.26 114.74 114.74 114.74-114.74 45.26 45.26-114.74 114.74z" />
<glyph unicode="&#xe539;" glyph-name="eyedropper" data-tags="eyedropper" d="M922.2 846.14l-12.36 12.36c-23.165 23.17-55.169 37.501-90.52 37.501s-67.356-14.331-90.52-37.501l-121.64-121.66-8.54 8.54c-5.79 5.786-13.787 9.365-22.62 9.365s-16.83-3.579-22.62-9.365l-18.76-18.76c-5.786-5.79-9.365-13.787-9.365-22.62s3.579-16.83 9.365-22.62l8.54-8.54-401.6-401.64c-15.891-15.935-27.608-36.041-33.367-58.533l-0.193-0.887-43-171.36c-0.613-2.349-0.965-5.046-0.965-7.825 0-17.795 14.425-32.22 32.22-32.22 2.75 0 5.419 0.344 7.967 0.993l-0.223-0.048 171.4 42.84c23.408 5.977 43.534 17.728 59.481 33.661l401.659 401.639 8.84-8.84c5.79-5.786 13.787-9.365 22.62-9.365s16.83 3.579 22.62 9.365l18.76 18.76c5.786 5.79 9.365 13.787 9.365 22.62s-3.579 16.83-9.365 22.62l-8.84 8.84 121.66 121.66c23.164 23.163 37.491 55.164 37.491 90.51s-14.327 67.347-37.491 90.51v0zM448 320h-128l288 288 64-64z" />
<glyph unicode="&#xe53a;" glyph-name="snap-grid" data-tags="snap-grid" d="M960 704v64h-192v192h-64v-192h-192v192h-64v-192h-192v192h-64v-192h-192v-64h192v-192h-192v-64h192v-192h-192v-64h192v-192h64v192h192v-192h64v192h192v-192h64v192h192v64h-192v192h192v64h-192v192zM256 704h192v-192h-192zM256 256v192h192v-192zM704 256h-192v192h192zM704 512h-192v192h192z" />
<glyph unicode="&#xe53b;" glyph-name="snap-to-gridlines" data-tags="snap-to-gridlines" d="M320 896h-320v-832h576v832h-256zM256 128h-192v192h192zM256 384h-192v192h192zM256 640h-192v192h192zM512 128h-192v192h192zM512 384h-192v192h192zM512 640h-192v192h192zM1024 480c-0.102-88.324-71.676-159.898-159.99-160h-64.010v64h64c53.019 0 96 42.981 96 96s-42.981 96-96 96v0h-64v64h64c88.324-0.102 159.898-71.676 160-159.99v-0.010zM704 576h64v64h-64zM704 320h64v64h-64z" />
<glyph unicode="&#xe53c;" glyph-name="snap-to-snaplines" data-tags="snap-to-snaplines" d="M448 704h192v64h-192v128h-64v-128h-128v128h-64v-128h-128v-64h128v-512h-128v-64h128v-128h64v128h128v-128h64v128h512v64h-512zM384 192h-128v512h128zM800 320h-64v64h64c53.019 0 96 42.981 96 96s-42.981 96-96 96v0h-64v64h64c88.366 0 160-71.634 160-160s-71.634-160-160-160v0zM704 640h-64v-64h64zM640 320h64v64h-64z" />
<glyph unicode="&#xe53d;" glyph-name="dimentions" data-tags="dimentions" d="M640 960h-640v-1024h256v768h768v256zM64 896h128v-128h-128zM192 192h-64v-64h64v-128h-128v320h128zM192 576h-64v-64h64v-128h-128v320h128zM448 768v64h-64v-64h-128v128h320v-128zM960 768h-128v64h-64v-64h-128v128h320z" />
<glyph unicode="&#xe53e;" glyph-name="align-stretch-element-horizontal" data-tags="align-stretch-element-horizontal" d="M190.8 768.36h640v-256h-640v256zM62.8 0.36h64v896h-64v-896zM190.8 384.36h640v-256h-640v256zM254.8 192.36h512v128h-512v-128zM894.8 896.36v-896h64v896h-64z" />
<glyph unicode="&#xe53f;" glyph-name="align-stretch-element-vertical" data-tags="align-stretch-element-vertical" d="M446.8 768.36v-640h-256v640h256zM62.8 0.36h896v64h-896v-64zM830.8 768.36v-640h-256v640h256zM766.8 704.36h-128v-512h128v512zM62.8 896.36v-64h896v64h-896z" />
<glyph unicode="&#xe540;" glyph-name="align-left-elements" data-tags="align-left-elements" d="M638.8 512.36h-448v256h448v-256zM62.8 0.36h64v896h-64v-896zM190.8 384.36v-256h704v256h-704z" />
<glyph unicode="&#xe541;" glyph-name="align-center-elements" data-tags="align-center-elements" d="M830.8 128.36h-320v-128h-64v128h-320v256h320v128h-192v256h192v128h64v-128h192v-256h-192v-128h320v-256z" />
<glyph unicode="&#xe542;" glyph-name="align-right-elements" data-tags="align-right-elements" d="M384.8 768.36h448v-256h-448v256zM896.8 896.36v-896h64v896h-64zM128.8 128.36h704v256h-704v-256z" />
<glyph unicode="&#xe543;" glyph-name="align-stretch-elements-horizontal" data-tags="align-stretch-elements-horizontal" d="M830.8 512.36h-640v256h640v-256zM62.8 0.36h64v896h-64v-896zM894.8 896.36v-896h64v896h-64zM192.68 128.36h640v256h-640v-256z" />
<glyph unicode="&#xe544;" glyph-name="align-baseline-horizontal" data-tags="align-baseline-horizontal" d="M830.8 512.36v320h-256v-320h-128v192h-256v-192h-128v-64h128v-192h256v192h128v-320h256v320h128v64h-128zM382.8 320.36h-128v128h128v-128zM766.8 192.36h-128v256h128v-256z" />
<glyph unicode="&#xe545;" glyph-name="align-top-elements" data-tags="align-top-elements" d="M192 768h256v-448h-256v448zM64 896v-64h896v64h-896zM576 64h256v704h-256v-704z" />
<glyph unicode="&#xe546;" glyph-name="align-middle-elements" data-tags="align-middle-elements" d="M958.8 448.36h-128v-320h-256v320h-128v-192h-256v192h-128v64h128v192h256v-192h128v320h256v-320h128v-64z" />
<glyph unicode="&#xe547;" glyph-name="align-bottom-elements" data-tags="align-bottom-elements" d="M446.8 126.36h-256v448h256v-448zM62.8 62.36v-64h896v64h-896zM830.8 830.36h-256v-704h256v704z" />
<glyph unicode="&#xe548;" glyph-name="align-stretch-elements-vertical" data-tags="align-stretch-elements-vertical" d="M446.8 768.36v-640h-256v640h256zM62.8 0.36h896v64h-896v-64zM62.8 896.36v-64h896v64h-896zM574.8 770.24v-640h256v640h-256z" />
<glyph unicode="&#xe549;" glyph-name="align-baseline-vertical" data-tags="align-baseline-vertical" d="M510.8 384.36v128h192v256h-192v128h-64v-128h-192v-256h192v-128h-320v-256h320v-128h64v128h320v256h-320zM446.8 192.36h-256v128h256v-128zM446.8 576.36h-128v128h128v-128z" />
<glyph unicode="&#xe54a;" glyph-name="justify-start-horizontal" data-tags="justify-start-horizontal" d="M190.8 768.36h256v-640h-256v640zM62.8 0.36h64v896h-64v-896zM510.8 770.24v-640h256v640h-256z" />
<glyph unicode="&#xe54b;" glyph-name="justify-center-horizontal" data-tags="justify-center-horizontal" d="M126.8 768.36h256v-640h-256v640zM446.8 0.36h64v896h-64v-896zM574.8 770.24v-640h256v640h-256z" />
<glyph unicode="&#xe54c;" glyph-name="justify-end-horizontal" data-tags="justify-end-horizontal" d="M256.8 768.36h256v-640h-256v640zM896.8 896.36v-896h64v896h-64zM576.8 130.24h256v640h-256v-640z" />
<glyph unicode="&#xe54d;" glyph-name="justify-between-horizontal" data-tags="justify-between-horizontal" d="M126.8 768.36h256v-640h-256v640zM958.8 896.36v-896h64v896h-64zM638.8 130.24h256v640h-256v-640zM-1.2 0.36h64v896h-64v-896z" />
<glyph unicode="&#xe54e;" glyph-name="justify-around-horizontal" data-tags="justify-around-horizontal" d="M190.8 768.36h256v-640h-256v640zM958.8 896.36v-896h64v896h-64zM574.8 130.24h256v640h-256v-640zM-1.2 0.36h64v896h-64v-896z" />
<glyph unicode="&#xe54f;" glyph-name="justify-start-vertical" data-tags="justify-start-vertical" d="M830.8 512.36h-640v256h640v-256zM62.8 896.36v-64h896v64h-896zM192.68 192.36h640v256h-640v-256z" />
<glyph unicode="&#xe550;" glyph-name="justify-center-vertical" data-tags="justify-center-vertical" d="M830.8 576.36h-640v256h640v-256zM62.8 512.36v-64h896v64h-896zM192.68 128.36h640v256h-640v-256z" />
<glyph unicode="&#xe551;" glyph-name="justify-end-vertical" data-tags="justify-end-vertical" d="M830.8 446.36h-640v256h640v-256zM62.8 62.36v-64h896v64h-896zM192.68 126.36h640v256h-640v-256z" />
<glyph unicode="&#xe552;" glyph-name="justify-between-vertical" data-tags="justify-between-vertical" d="M190.8 832.36h640v-256h-640v256zM62.8-63.64h896v64h-896v-64zM192.68 64.36h640v256h-640v-256zM62.8 960.36v-64h896v64h-896z" />
<glyph unicode="&#xe553;" glyph-name="justify-around-vertical" data-tags="justify-around-vertical" d="M190.8 768.36h640v-256h-640v256zM62.8-63.64h896v64h-896v-64zM192.68 128.36h640v256h-640v-256zM62.8 960.36v-64h896v64h-896z" />
<glyph unicode="&#xe554;" glyph-name="color-canvas" data-tags="color-canvas" d="M384 192v-64c-106 0-192 86-192 192h64c0-70.6 57.4-128 128-128zM704 336c0-185.6-143.2-336-320-336s-320 150.4-320 336c0 261.4 320 560 320 560s320-298.6 320-560zM640 336c0 92.6-50.6 209.4-146 338-40 54-80.6 99.6-110 130.8-29.4-31.2-69.8-77-110-130.8-95.6-128.6-146-245.6-146-338 0-150 114.8-272 256-272s256 122 256 272zM896 512h-64v-512h64v512zM896 896h-64v-128h64v128zM768 704v-128h192v128h-192z" />
<glyph unicode="&#xe600;" glyph-name="page-properties" data-tags="page, properties" d="M941.4 0l-45.4-45.4c-24.8-24.8-65.6-24.8-90.2 0.2l-186.2 186.2c-23.6-8.4-49-13-75.6-13-123.8 0-224 100.2-224 224 0 26.4 4.6 51.8 13 75.2l97.8-97.8c24.8-24.8 65.6-24.8 90.6 0l45.2 45.2c24.8 24.8 24.8 65.6 0 90.6l-97.8 97.8c23.6 8.4 48.8 13 75.2 13 123.8 0 224-100.2 224-224 0-26.4-4.6-51.8-13-75.2l186.4-186.2c24.8-25 24.8-65.8 0-90.6zM896 45.2l-172.6 172.6c-12.8-17.2-28-32.4-45.2-45.2l172.8-172.6 45.2 45v0.2zM192 832h448v-192h192v-256h64v320l-192 192h-512c-35.4 0-64-28.6-64-64v-768c0-35.4 28.6-64 64-64h320v64h-320v768z" />
<glyph unicode="&#xe601;" glyph-name="bold" data-tags="bold" d="M256 768h231.6c50.6 0 88.4-2.2 113.2-6.4s47.2-13 66.8-26.4c19.6-13.4 36-31.2 49.2-53.4s19.6-47.2 19.6-74.8c0-30-8.2-57.4-24.2-82.4-16.2-25-38.2-43.8-65.8-56.4 39-11.4 69-30.8 90-58s31.4-59.6 31.4-96.4c0-29.2-6.8-57.4-20.4-84.8-13.4-27.6-32-49.6-55.4-66s-52.2-26.6-86.6-30.4c-21.6-2.4-73.4-3.8-156-4.4h-193.4v639.8zM384 661.4v-148h61.8c50.4 0 81.6 0.8 93.8 2.2 22.2 2.6 39.4 10.4 52.2 23 12.6 12.6 19 29.4 19 50 0 19.8-5.4 36-16.4 48.2-11 12.4-27.2 20-48.8 22.4-12.8 1.4-49.6 2.2-110.4 2.2h-51.2zM384 406.8v-171.2h96.8c46.6 0 76 1.4 88.6 4 19.2 3.6 34.8 12 47 25.6s18 31.6 18 54.4c0 19.2-4.6 35.6-14 49s-22.8 23.2-40.4 29.2c-17.6 6.2-55.8 9.2-114.6 9.2l-81.4-0.2z" />
<glyph unicode="&#xe602;" glyph-name="italic" data-tags="italic" d="M754.4 704l13.6 64h-370.4l-13.6-64h118.4l-108.8-512h-124l-13.6-64h370.4l13.6 64h-118.4l108.8 512h124z" />
<glyph unicode="&#xe603;" glyph-name="underline" data-tags="underline" d="M256 128h512v-64h-512v64zM640 832v-448c0-23.2-7-32-20.6-40.6-23.6-14.8-62.6-23.4-107.4-23.4s-83.8 8.6-107.4 23.4c-13.6 8.6-20.6 17.4-20.6 40.6v448h-128v-448c0-140.8 128.6-192 256-192s256 51.2 256 192v448h-128z" />
<glyph unicode="&#xe604;" glyph-name="font-family" data-tags="font, family" d="M448 128v512h-190.4l-1.6 128h512v-128h-192v-512h-128z" />
<glyph unicode="&#xe605;" glyph-name="foreground-color" data-tags="foreground, color" d="M599 768h-174.2l-232.8-640h128l46.6 128h290.8l46.6-128h128l-233 640zM413.2 384l98.8 271.6 98.8-271.6h-197.6z" />
<glyph unicode="&#xe606;" glyph-name="convert-lowercase" data-tags="convert, lowercase" d="M960 128h-87.8v71.8h-1.6c-27.6-47.8-68-71.8-121.4-71.8-39.4 0-70 10.6-92.4 32-22.2 21.4-33.4 49.6-33.4 84.8 0 75.4 43.4 119.4 130.4 132l118.6 16.8c0 57-27 85.4-81.2 85.4-47.6 0-90.6-16.4-128.8-49.2v79.2c42.2 25 90.8 37.4 146 37.4 101 0 151.4-49.8 151.4-149.2v-269.2h0.2zM872.6 333.8l-84-11.8c-26-3.4-45.6-9.8-58.8-19s-19.8-25.4-19.8-48.6c0-17 6-30.8 18.2-41.6s28.4-16.2 48.6-16.2c27.6 0 50.4 9.6 68.6 29 18 19.4 27.2 43.8 27.2 73.2v35zM480 128h96l-208 640h-96l-208-640h96l52 160h216l52-160zM243.2 384l76.8 236.4 76.8-236.4h-153.6z" />
<glyph unicode="&#xe607;" glyph-name="convert-uppercase" data-tags="convert, uppercase" d="M400.6 128h-87.8v71.8h-1.6c-27.6-47.8-68-71.8-121.4-71.8-39.4 0-70 10.6-92.4 32-22.2 21.4-33.4 49.6-33.4 84.8 0 75.4 43.4 119.4 130.4 132l118.6 16.8c0 57-27 85.4-81.2 85.4-47.6 0-90.6-16.4-128.8-49.2v79.2c42.2 25 90.8 37.4 146 37.4 101 0 151.4-49.8 151.4-149.2v-269.2h0.2zM313 333.8l-84-11.8c-26-3.4-45.6-9.8-58.8-19s-19.8-25.4-19.8-48.6c0-17 6-30.8 18.2-41.6s28.4-16.2 48.6-16.2c27.6 0 50.4 9.6 68.6 29 18 19.4 27.2 43.8 27.2 73.2v35zM864 128h96l-208 640h-96l-208-640h96l52 160h216l52-160zM627.2 384l76.8 236.4 76.8-236.4h-153.6z" />
<glyph unicode="&#xe608;" glyph-name="strikethrough" data-tags="strikethrough" d="M787.8 320c0.2 47.8 9 82.8 27 105 18.2 22.2 41.6 33.4 70.6 33.4 19.2 0 35.4-6.2 49-18.6s22.8-30.8 28.2-55.4l55.8 9.4c-6.6 36.8-21.6 65.4-45 85.4s-53.6 30-90.4 30c-29 0-56.2-7.2-80.8-22.2-24.8-14.8-43.2-37-55.4-66.4-11.8-28.8-17.8-62.4-18.2-100.8h-51c0 1.4 0 2.8 0 4.4 0 26.4-3.4 51.2-10.2 74.2s-16.2 42.8-28.4 59.2c-12 16.2-27.4 29-46 38s-38.4 13.6-59.2 13.6c-37.8 0-68.6-16.4-92.8-49.2v180h-57v-320h-90v51.6c0 27.4-1 46.6-2.8 57-3.4 17-9.4 31-18 42.2-8.6 11-21.8 20.4-39.8 27.6s-41.6 11-70.6 11c-29.2 0-54.8-4.2-77-12.8s-39-20.8-50.8-36.8c-11.6-16-20-36.8-25.2-62.8l56.2-8.2c6.2 26 15.6 44 28.6 54.2s32.8 15.4 59.8 15.4c29 0 50.8-7 65.4-21 10.8-10.2 16.2-28 16.2-53.2 0-2.2 0-7.6-0.4-16.2-22-8.2-56-15.4-102.4-21.4-22.8-3-39.8-6-51-9.4-13.4-4-25.8-9.8-37-17.2h-45.2v-64h2.4c-1.6-7.6-2.4-15.4-2.4-23.6 0-30.4 10-55.6 30-75.2s48.6-29.2 85.8-29.2c22.6 0 43.6 3.8 63.2 12s40.2 21.8 61.4 41.2h0.2c1.6-17.2 5.4-40.6 11.4-53.4h60c-7.2 14-12 36.8-14.6 52.2-2 12-3.2 37.4-3.6 75.8h90v-128h53.2v54.2c22.8-36 54.2-54 94.2-54 40.2 0 74.6 17 103.4 51.2 17.2 20.4 29.2 46 36 76.6h63.6c6.6-32 18.8-58.4 36.6-79 28.2-32.6 65.4-49 111.8-49 37 0 68.2 12 93.6 35.6 24.2 22.6 39.6 53.4 46.4 92.4h1v64h-235.8zM226.4 234.8c-8.2-18-20.8-32.2-38-42.8-17.2-10.4-36.8-15.6-59-15.6-22.4 0-39.2 5.6-50.8 16.4-11.6 11.2-17.4 24.8-17.4 41.4 0 7.8 1.4 15 4.2 21.8h167.2c-1.4-8.2-3.6-15.4-6.2-21.2zM436.6 321.4c0 44.4 9.2 78.4 27.4 101.8 18.2 23.6 40 35.2 65 35.2s46.2-11.2 63.6-34c17.6-22.6 26.2-57.4 26.4-104.6h-182.6c0.2 0.6 0.2 1.2 0.2 1.6zM591.8 214.2c-18.2-23.6-40-35.4-65-35.4-31 0-55.4 16-73.4 47.8-4.4 7.8-8 17.6-10.6 29.4h169.2c-4.8-16.6-11.4-30.6-20.2-41.8zM938.8 201c-15-15-33.8-22.4-56.4-22.4-28 0-50.8 11.2-68.2 33.4-8.8 11.2-15.4 25.8-19.8 43.8h171c-5.2-23.8-14-42.2-26.6-54.8z" />
<glyph unicode="&#xe609;" glyph-name="sub-script" data-tags="sub, script" d="M397.2 352l178.8-178.8-45.2-45.2-178.8 178.8-178.8-178.8-45.2 45.2 178.8 178.8-178.8 178.8 45.2 45.2 178.8-178.8 178.8 178.8 45.2-45.2-178.8-178.8zM732.6 64h162.8v-64h-255.4v23.8c0 16 3.4 30.6 10 43.4s15 24.2 25 34.4c10 10.2 21 19.2 32.8 27s23.2 14.8 33.8 21.2c11.2 6.6 21.2 12.8 29.6 18.8s15.6 12 21.4 17.8c5.8 6 10.2 12 13 18s4.2 12.6 4.2 19.4c0 13.4-4.6 23.6-14 30.6-9.2 6.8-23.4 10.4-42.6 10.4-33 0-64.6-10.8-94.8-32.2v61c33.4 17.8 71 26.6 113 26.6 19.4 0 37-2 52.4-6.2s28.6-10.2 39.2-17.8c10.8-7.8 18.8-17.2 24.6-28.2 5.6-11 8.4-23.4 8.4-37 0-14.4-2.8-27.4-8.2-38.6s-12.6-21.6-21.6-30.8c-9-9.2-19.4-17.6-31.2-25.4-11.8-7.6-24-15.2-36.6-22.2-8.6-5-16.8-10-24.8-14.8-8-5-15-9.8-21-14.4-6.2-5.2-14.2-13.2-20-20.8z" />
<glyph unicode="&#xe60a;" glyph-name="sup-script" data-tags="sup, script" d="M397.2 352l178.8-178.8-45.2-45.2-178.8 178.8-178.8-178.8-45.2 45.2 178.8 178.8-178.8 178.8 45.2 45.2 178.8-178.8 178.8 178.8 45.2-45.2-178.8-178.8zM732.6 576h162.8v-64h-255.4v23.8c0 16 3.4 30.6 10 43.4s15 24.2 25 34.4c10 10.2 21 19.2 32.8 27s23.2 14.8 33.8 21.2c11.2 6.6 21.2 12.8 29.6 18.8s15.6 12 21.4 17.8c5.8 6 10.2 12 13 18s4.2 12.6 4.2 19.4c0 13.4-4.6 23.6-14 30.6-9.2 6.8-23.4 10.4-42.6 10.4-33 0-64.6-10.8-94.8-32.2v60.8c33.4 17.8 71 26.6 113 26.6 19.4 0 37-2 52.4-6.2s28.6-10.2 39.2-17.8c10.8-7.8 18.8-17.2 24.6-28.2 5.6-11 8.4-23.4 8.4-37 0-14.4-2.8-27.4-8.2-38.6s-12.6-21.6-21.6-30.8c-9-9.2-19.4-17.6-31.2-25.4-11.8-7.6-24-15.2-36.6-22.2-8.6-5-16.8-10-24.8-14.8-8-5-15-9.8-21-14.4-6.2-5-14.2-13-20-20.6z" />
</font>
</defs>
</svg>
